На всех торрентах на трекере установлена скидка на скачивание в размере 100 процентов(а).
 Возможность скачивания торрента НЕ зависит от ограничений при низком ратио, низком аплоаде, требуемом ратио или требуемом аплоаде.


Начать новую тему Ответить на тему
Статистика раздачи
Размер: 5.08 ГБ | Добавлен: 20 окт 2017, 22:58 | Скачали: 142
Сидеров: 90  [0 байт/сек]    Личеров: 12  [0 байт/сек]
Пред. тема | След. тема 

Автор
Сообщение

СообщениеДобавлено: 20 окт 2017, 22:58 

Ответить с цитатой 

Название: Звёздный десант: Предатель Марса
Оригинальное название: Starship Troopers: Traitor of Mars
Год выхода: 2017
Жанр: мультфильм, фантастика, боевик
Режиссер: Синдзи Арамаки, Масару Мацумото
В ролях: Каспер Ван Дин, Дина Мейер, ДеРэй Дэвис, Люси Кристиан, Джастин Доран Грэм

О фильме: На колонизированном людьми Марсе жизнь течёт мирно и спокойно. В остальной Федерации марсиан считают недалёкими, и десантник Джон Рико уже тоже начинает сомневаться в способностях своего отряда - раз за разом команда проваливает на симуляторе миссии по уничтожению колонии жуков. И когда внезапно Марс атакуют полчища уже настоящих гигантских насекомых, отряду новичков придется доказать, что марсиане способны постоять за родную планету.



Выпущено: Япония, США / Nu Boyana Film Studios, Nu-Image Films
Продолжительность: 01:27:44
Перевод: Профессиональный (многоголосый, закадровый) [Лицензия]


Формат: MKV
Качество: BDRip 720p
Видео: MPEG-4 AVC, 7000 kb/s, 1280x720
Аудио: Russian: / English: AC3, 640 kb/s (6 ch)
Субтитры: Russian (Full), English (Full)
x264 [info]: frame I:816 Avg QP:18.42 size:133385
x264 [info]: frame P:29608 Avg QP:20.49 size: 64115
x264 [info]: frame B:95792 Avg QP:21.02 size: 27137
x264 [info]: consecutive B-frames: 3.4% 4.4% 9.9% 17.1% 18.2% 32.2% 7.1% 3.8% 2.1% 0.6% 0.6% 0.6%
============================================
Общее
Уникальный идентификатор : 196281133785100848616749236287590913145 (0x93AA5F0E02227ED7B330AAAEDD505479)
Полное имя : D:ЗагрузкиZvozdnyy.desant.Predatel.Mars.2017.P.BDRip.720p.mkv
Формат : Matroska
Версия формата : Version 2
Размер файла : 5,08 Гбайт
Продолжительность : 1 ч. 27 м.
Общий поток : 8283 Кбит/сек
Дата кодирования : UTC 2017-09-21 07:51:25
Программа кодирования : mkvmerge v7.8.0 ('River Man') 32bit built on Apr 3 2015 12:11:22
Библиотека кодирования : libebml v1.3.1 + libmatroska v1.4.2

Видео
Идентификатор : 1
Формат : AVC
Формат/Информация : Advanced Video Codec
Профиль формата : High@L4.1
Параметр CABAC формата : Да
Параметр ReFrames формата : 9 кадров
Идентификатор кодека : V_MPEG4/ISO/AVC
Продолжительность : 1 ч. 27 м.
Битрейт : 7000 Кбит/сек
Ширина : 1280 пикселей
Высота : 720 пикселей
Соотношение сторон : 16:9
Режим частоты кадров : Постоянный
Частота кадров : 23,976 (24000/1001) кадра/сек
Цветовое пространство : YUV
Субдискретизация насыщенности : 4:2:0
Битовая глубина : 8 бит
Тип развёртки : Прогрессивная
Бит/(Пиксели*Кадры) : 0.317
Размер потока : 4,19 Гбайт (83%)
Библиотека кодирования : x264 core 152 r2851 ba24899
Настройки программы : cabac=1 / ref=9 / deblock=1:0:0 / analyse=0x3:0x113 / me=umh / subme=11 / psy=1 / psy_rd=1.00:0.00 / mixed_ref=1 / me_range=32 / chroma_me=1 / trellis=2 / 8x8dct=1 / cqm=0 / deadzone=21,11 / fast_pskip=0 / chroma_qp_offset=-2 / threads=12 / lookahead_threads=3 / sliced_threads=0 / nr=0 / decimate=0 / interlaced=0 / bluray_compat=0 / constrained_intra=0 / bframes=11 / b_pyramid=2 / b_adapt=2 / b_bias=0 / direct=3 / weightb=1 / open_gop=0 / weightp=2 / keyint=240 / keyint_min=23 / scenecut=40 / intra_refresh=0 / rc_lookahead=40 / rc=2pass / mbtree=0 / bitrate=7000 / ratetol=1.0 / qcomp=0.60 / qpmin=0 / qpmax=69 / qpstep=4 / cplxblur=20.0 / qblur=0.5 / vbv_maxrate=50000 / vbv_bufsize=62500 / nal_hrd=none / filler=0 / ip_ratio=1.40 / pb_ratio=1.30 / aq=1:1.70
Язык : English
Default : Да
Forced : Нет

Аудио #1
Идентификатор : 2
Формат : AC-3
Формат/Информация : Audio Coding 3
Параметр Endianness формата : Big
Идентификатор кодека : A_AC3
Продолжительность : 1 ч. 27 м.
Вид битрейта : Постоянный
Битрейт : 640 Кбит/сек
Каналы : 6 каналов
Расположение каналов : Front: L C R, Side: L R, LFE
Частота : 48,0 КГц
Частота кадров : 31,250 кадров/сек (1536 spf)
Битовая глубина : 16 бит
Метод сжатия : С потерями
Размер потока : 402 Мбайт (8%)
Язык : Russian
Default : Да
Forced : Нет

Аудио #2
Идентификатор : 3
Формат : AC-3
Формат/Информация : Audio Coding 3
Параметр Endianness формата : Big
Идентификатор кодека : A_AC3
Продолжительность : 1 ч. 27 м.
Вид битрейта : Постоянный
Битрейт : 640 Кбит/сек
Каналы : 6 каналов
Расположение каналов : Front: L C R, Side: L R, LFE
Частота : 48,0 КГц
Частота кадров : 31,250 кадров/сек (1536 spf)
Битовая глубина : 16 бит
Метод сжатия : С потерями
Размер потока : 402 Мбайт (8%)
Язык : English
Default : Нет
Forced : Нет

Текст #1
Идентификатор : 4
Формат : UTF-8
Идентификатор кодека : S_TEXT/UTF8
Идентификатор кодека/Информация : UTF-8 Plain Text
Заголовок : Full
Язык : Russian
Default : Нет
Forced : Нет

Текст #2
Идентификатор : 5
Формат : UTF-8
Идентификатор кодека : S_TEXT/UTF8
Идентификатор кодека/Информация : UTF-8 Plain Text
Заголовок : Full
Язык : English
Default : Нет
Forced : Нет

Меню
00:00:00.000 : en:Chapter 1
00:06:52.787 : en:Chapter 2
00:11:49.167 : en:Chapter 3
00:15:55.830 : en:Chapter 4
00:22:11.080 : en:Chapter 5
00:28:16.278 : en:Chapter 6
00:34:40.120 : en:Chapter 7
00:38:02.030 : en:Chapter 8
00:41:06.464 : en:Chapter 9
00:51:04.478 : en:Chapter 10
00:56:53.243 : en:Chapter 11
01:02:22.280 : en:Chapter 12
01:06:19.934 : en:Chapter 13
01:13:16.100 : en:Chapter 14
01:18:19.987 : en:Chapter 15
01:22:40.873 : en:Chapter 16





Правила, инструкции, FAQ!!!
Торрент  Добавлен [20 окт 2017, 22:58] Скачать торрент Магнет ссылка
Скачать торрент
[ Размер 26.38 КБ / Просмотров 82 ]

Статус
Проверен 
 
Размер  5.08 ГБ
Приватный: Нет (DHT включён)
.torrent скачан  142
Как залить торрент? | Как скачать Torrent? | Ошибка в торренте? Качайте магнет  
загрузка...


     Отправить личное сообщение
   
Страница 1 из 1
Показать сообщения за:  Поле сортировки  
Начать новую тему Ответить на тему

   Похожие торренты   Автор   Ответы   Просмотры   Последнее сообщение 
В этой теме нет новых непрочитанных сообщений. Скачать торрент Проверен Звёздный десант: Предатель Марса / Starship Troopers: Traitor of Mars (2017) BDRip | Лицензия

в форуме Зарубежные мультфильмы, Размер: 1.45 ГБ, Здоровье: 100%

Гость

0
11|1

110
3

20 окт 2017, 22:53

Гость Перейти к последнему сообщению

В этой теме нет новых непрочитанных сообщений. Скачать торрент Проверен Предатель / Traitor (2008) BDRip 720p

в форуме 720p | 1080p, Размер: 4.23 ГБ, Здоровье: 21%

Гость

0
24|110

134
25

29 мар 2015, 22:33

Гость Перейти к последнему сообщению

В этой теме нет новых непрочитанных сообщений. Скачать торрент Предатель / Traitor (2008) BDRip 1080p

в форуме 720p | 1080p, Размер: 10.13 ГБ, Здоровье: 0%

Anonymous

0
0|0

37
0

18 фев 2014, 14:24

Anonymous Перейти к последнему сообщению

В этой теме нет новых непрочитанных сообщений. Скачать торрент Проверен Пришельцы с Марса / Invaders from Mars (1986) BDRip 720p

в форуме 720p | 1080p, Размер: 4.37 ГБ, Здоровье: 1%

Anonymous

0
2|108

107
0

31 окт 2014, 17:08

Anonymous Перейти к последнему сообщению

В этой теме нет новых непрочитанных сообщений. Скачать торрент Проверен Звездный путь / Star Trek (2009) BDRip 720p | Лицензия

в форуме 720p | 1080p, Размер: 6.16 ГБ, Здоровье: 100%

Anonymous

0
73|4

106
243

18 сен 2014, 21:41

Anonymous Перейти к последнему сообщению



Сейчас этот форум просматривают: нет зарегистрированных пользователей и гости: 0


Вы не можете начинать темы
Вы не можете отвечать на сообщения
Вы не можете редактировать свои сообщения
Вы не можете удалять свои сообщения
Вы не можете добавлять вложения

Перейти:  
Ресурс не предоставляет электронные версии произведений, а занимается лишь коллекционированием и каталогизацией ссылок, присылаемых и публикуемых на форуме нашими читателями. Если вы являетесь правообладателем какого-либо представленного материала и не желаете чтобы ссылка на него находилась в нашем каталоге, свяжитесь с нами и мы незамедлительно удалим её. Файлы для обмена на трекере предоставлены пользователями сайта, и администрация не несёт ответственности за их содержание. Просьба не заливать файлы, защищенные авторскими правами, а также файлы нелегального содержания!
cron