На всех торрентах на трекере установлена скидка на скачивание в размере 100 процентов(а).
 Возможность скачивания торрента НЕ зависит от ограничений при низком ратио, низком аплоаде, требуемом ратио или требуемом аплоаде.


Начать новую тему Ответить на тему
Статистика раздачи
Размер: 747.01 МБ | Добавлен: 03 фев 2018, 18:58 | Скачали: 0
Сидеров: 0  [0 байт/сек]    Личеров: 0  [0 байт/сек]
Пред. тема | След. тема 

Автор
Сообщение

СообщениеДобавлено: 03 фев 2018, 18:58 

Ответить с цитатой 

Зип и Зап, и остров Капитана / Zipi y Zape y la Isla del Capitán / Zip & Zap and the Captain's Island
Страна: Испания
Жанр: комедия, приключения, семейный
Год выпуска: 2016
Продолжительность: 01:44:37
Перевод: Любительский (многоголосый закадровый) (GreenРай Studio)
Субтитры: нет
Режиссер: Оскар Сантос Гомес / Oskar Santos
В ролях: Елена Анайя, Каролина Лапауса, Тео Планель, Максим Пастор, Гойсальде Нуньес, Хорхе Бош, Тони Гомес, Том Уилтон, Ферми Рейксач
Описание:Проказники Зип и Зап оказываются наказанными в самый канун Рождества. Теперь вместо того, чтобы наслаждаться зимними каникулами, они должны сопровождать своих родителей в деловой поездке на отдаленный остров. Однако ужасный шторм нарушает все планы, и семья вынуждена искать временное прибежище в доме эксцентричной мисс Пам, где дети без семей наслаждаются райской жизнью без правил. В компании своих новых друзей братьям Зипу и Запу предстоит раскрыть множество секретов, а также узнать, что таинственное исчезновение их родителей посреди ночи имеет отношение к скелетам, которые хранят в своих шкафах странные обитатели этого острова.
Сэмпл: http://multi-up.com/847356
Качество видео: HDRip (исходник BDRip 720p)
Формат видео: AVI
Видео: Xvid 688x288 23.976fps 860kbps
Аудио: MPEG Audio Layer 3 48000Hz stereo 128kbps
General
Complete name : C:\Zipi.Y.Zape.Y.La.Isla.Del.Capitan.2016.HDRip.avi
Format : AVI
Format/Info : Audio Video Interleave
File size : 747 MiB
Duration : 1h 44mn
Overall bit rate : 998 Kbps
Writing application : VirtualDubMod 1.5.10.3 | www.virtualdub-fr.org || (build 2550/release)
Writing library : VirtualDubMod build 2550/release
Video
ID : 0
Format : MPEG-4 Visual
Format profile : Advanced Simple@L5
Format settings, BVOP : 1
Format settings, QPel : No
Format settings, GMC : No warppoints
Format settings, Matrix : Custom
Codec ID : XVID
Codec ID/Hint : XviD
Duration : 1h 44mn
Bit rate : 861 Kbps
Width : 688 pixels
Height : 288 pixels
Display aspect ratio : 2.40:1
Frame rate : 23.976 fps
Color space : YUV
Chroma subsampling : 4:2:0
Bit depth : 8 bits
Scan type : Progressive
Compression mode : Lossy
Bits/(Pixel*Frame) : 0.181
Stream size : 644 MiB (86%)
Writing library : XviD 73
Audio
ID : 1
Format : MPEG Audio
Format version : Version 1
Format profile : Layer 3
Codec ID : 55
Codec ID/Hint : MP3
Duration : 1h 44mn
Bit rate mode : Constant
Bit rate : 128 Kbps
Channel(s) : 2 channels
Sampling rate : 48.0 KHz
Compression mode : Lossy
Stream size : 95.8 MiB (13%)
Alignment : Aligned on interleaves
Interleave, duration : 42 ms (1.00 video frame)
Interleave, preload duration : 504 ms
Writing library : LAME3.99r
Encoding settings : -m s -V 4 -q 2 -lowpass 17 -b 128
загрузка...
Правила, инструкции, FAQ!!!
Торрент  Добавлен [03 фев 2018, 18:58] Скачать торрент Магнет ссылка
Скачать торрент
[ Размер 15.07 КБ / Просмотров 74 ]

Статус
Проверен 
 
Размер  747.01 МБ
Приватный: Нет (DHT включён)
.torrent скачан  0
Как залить торрент? | Как скачать Torrent? | Ошибка в торренте? Качайте магнет  


     Отправить личное сообщение
   
Страница 1 из 1
Показать сообщения за:  Поле сортировки  
Начать новую тему Ответить на тему

   Похожие торренты   Автор   Ответы   Просмотры   Последнее сообщение 
В этой теме нет новых непрочитанных сообщений. Скачать торрент Проверен Зип и Зап, и остров Капитана / Zipi y Zape y la Isla del Capitán / Zip & Zap and the Captain's Island (Оскар Сантос Гомес / Oskar Santos) [2016, Испания, комедия, приключения, семейный, HDRip] Sub Rus (jojag) + Original Spa

в форуме Фильмы 2016-2017, Размер: 1.46 ГБ, Здоровье: 100%

Anonymous

0
1|0

35
0

03 фев 2018, 18:54

Anonymous Перейти к последнему сообщению

В этой теме нет новых непрочитанных сообщений. Скачать торрент Проверен Охота на дикарей / Охота на диких людей / Hunt for the Wilderpeople (Тайка Вайтити / Taika Waititi) [2016, Новая Зеландия, драма, комедия, приключения, HDRip] MVO (GreenРай Studio)

в форуме Фильмы 2016-2017, Размер: 748.21 МБ, Здоровье: 0%

Anonymous

0
0|0

45
0

03 фев 2018, 18:15

Anonymous Перейти к последнему сообщению

В этой теме нет новых непрочитанных сообщений. Скачать торрент Проверен Путешествие 2: Таинственный остров в 3Д / Journey 2: The Mysterious Island 3D (Брэд Пейтон / Brad Peyton) [2012, Фантастика, Приключения, Комедия, Семейный, BDrip-AVC] Half OverUnder / Вертикальная анаморфная стереопара

в форуме HD-Video в 3D, Размер: 13.46 ГБ, Здоровье: 100%

Anonymous

0
127|43

211
1

10 июл 2014, 14:27

Anonymous Перейти к последнему сообщению

В этой теме нет новых непрочитанных сообщений. Скачать торрент Проверен Зип и Зап. Клуб стеклянных шариков / Zipi y Zape y el club de la canica (2013) HDRip | Чистый звук

в форуме Детское, Семейное кино, Размер: 1.46 ГБ, Здоровье: 100%

Гость

0
160|5

319
98

18 апр 2015, 22:53

Гость Перейти к последнему сообщению

В этой теме нет новых непрочитанных сообщений. Скачать торрент Проверен [iPad] Ангел неба / Angel of the Skies (Кристофер-Ли дос Сантос / Christopher-Lee dos Santos ) [2013, ЮАР, Военный, драма, HDRip, SD (576p)] AVO + Original + sub (eng)

в форуме Фильмы для iPod, iPhone, iPad, Размер: 1.75 ГБ, Здоровье: 100%

Гость

0
2|1

107
0

18 май 2015, 10:40

Гость Перейти к последнему сообщению



Сейчас этот форум просматривают: нет зарегистрированных пользователей и гости: 0


Вы не можете начинать темы
Вы не можете отвечать на сообщения
Вы не можете редактировать свои сообщения
Вы не можете удалять свои сообщения
Вы не можете добавлять вложения

Перейти:  
Ресурс не предоставляет электронные версии произведений, а занимается лишь коллекционированием и каталогизацией ссылок, присылаемых и публикуемых на форуме нашими читателями. Если вы являетесь правообладателем какого-либо представленного материала и не желаете чтобы ссылка на него находилась в нашем каталоге, свяжитесь с нами и мы незамедлительно удалим её. Файлы для обмена на трекере предоставлены пользователями сайта, и администрация не несёт ответственности за их содержание. Просьба не заливать файлы, защищенные авторскими правами, а также файлы нелегального содержания!
cron