На всех торрентах на трекере установлена скидка на скачивание в размере 100 процентов(а).
 Возможность скачивания торрента НЕ зависит от ограничений при низком ратио, низком аплоаде, требуемом ратио или требуемом аплоаде.


Начать новую тему Ответить на тему
Статистика раздачи
Размер: 5.37 ГБ | Добавлен: 06 май 2018, 09:33 | Скачали: 19
Сидеров: 16  [0 байт/сек]    Личеров: 8  [0 байт/сек]
Пред. тема | След. тема 

Автор
Сообщение

СообщениеДобавлено: 06 май 2018, 09:33 

Ответить с цитатой 

Название: Забытые дети
Оригинальное название: Psiconautas, los niños olvidados
Год выхода: 2015
Жанр: мультфильм, ужасы, фантастика, драма
Режиссер: Педро Риверо
В ролях: Феликс Аркарасо, Хорхе Карреро, Марибель Легаррета, Кепа Куэто

О фильме:
Сюрреалистичная анимация для взрослых об острове с антропоморфными животными, разрушенном экологической катастрофой. Мышка-подросток Динки вместе со своими друзьями мечтает покинуть это мрачное место и свой несчастливый дом, но между беглецами и лучшей жизнью стоит жестокость окружающей реальности и их внутренние демоны.



Страна: Испания
Студия: Abrakan Estudio, Basque Films, Competencia Producciones
Продолжительность: 01:16:23
Перевод: Любительский (двухголосый закадровый) [NewStation]


Кодек: x.264
Качество: BDRip 1080p
Видео: MPEG-4 AVC, 6 668 Кбит/с, 1920x1016
Звук #1: AC3, 6 ch, 384 Кбит/с | Rus
Звук #2: DTS, 6 ch, 1536 Кбит/с | Spa
Звук #3: DTS, 6 ch, 1536 Кбит/с | Eng
Субтитры: Русские, английские



Format : Matroska
Format version : Version 2
File size : 5.37 GiB
Duration : 1h 16mn
Overall bit rate : 10.1 Mbps
Movie name : Psiconautas.los.niños.olvidados.2015.BDRip.1080p.[zzZGVvv]
Attachment : Yes / Yes

Video
ID : 1
Format : AVC
Format/Info : Advanced Video Codec
Format profile : High@L4.1
Format settings, CABAC : Yes
Format settings, ReFrames : 4 frames
Codec ID : V_MPEG4/ISO/AVC
Duration : 1h 16mn
Bit rate : 6 668 Kbps
Width : 1 920 pixels
Height : 1 016 pixels
Display aspect ratio : 1.890
Frame rate mode : Constant
Frame rate : 23.976 fps
Color space : YUV
Chroma subsampling : 4:2:0
Bit depth : 8 bits
Scan type : Progressive
Bits/(Pixel*Frame) : 0.143
Stream size : 3.45 GiB (64%)
Title : Psiconautas.los.niños.olvidados.2015.BDRip.1080p
Writing library : x264 core 155 r2901 7d0ff22
Encoding settings : cabac=1 / ref=4 / deblock=1:1:1 / analyse=0x3:0x113 / me=umh / subme=8 / psy=1 / psy_rd=0.40:0.00 / mixed_ref=1 / me_range=24 / chroma_me=1 / trellis=1 / 8x8dct=1 / cqm=0 / deadzone=21,11 / fast_pskip=1 / chroma_qp_offset=-2 / threads=30 / lookahead_threads=5 / sliced_threads=0 / nr=0 / decimate=1 / interlaced=0 / bluray_compat=0 / constrained_intra=0 / bframes=5 / b_pyramid=2 / b_adapt=1 / b_bias=0 / direct=3 / weightb=1 / open_gop=0 / weightp=2 / keyint=240 / keyint_min=24 / scenecut=40 / intra_refresh=0 / rc_lookahead=50 / rc=2pass / mbtree=1 / bitrate=6668 / ratetol=1.0 / qcomp=0.60 / qpmin=0 / qpmax=69 / qpstep=4 / cplxblur=20.0 / qblur=0.5 / ip_ratio=1.40 / aq=1:0.60
Language : English
Default : Yes
Forced : No

Audio #1
ID : 2
Format : AC-3
Format/Info : Audio Coding 3
Mode extension : CM (complete main)
Format settings, Endianness : Big
Codec ID : A_AC3
Duration : 1h 16mn
Bit rate mode : Constant
Bit rate : 384 Kbps
Channel(s) : 6 channels
Channel positions : Front: L C R, Side: L R, LFE
Sampling rate : 48.0 KHz
Bit depth : 16 bits
Compression mode : Lossy
Stream size : 210 MiB (4%)
Title : DVO [NewStation]
Language : Russian
Default : Yes
Forced : No

Audio #2
ID : 3
Format : DTS
Format/Info : Digital Theater Systems
Mode : 16
Format settings, Endianness : Big
Codec ID : A_DTS
Duration : 1h 16mn
Bit rate mode : Constant
Bit rate : 1 509 Kbps
Channel(s) : 6 channels
Channel positions : Front: L C R, Side: L R, LFE
Sampling rate : 48.0 KHz
Bit depth : 24 bits
Compression mode : Lossy
Stream size : 824 MiB (15%)
Title : DTS
Language : Spanish
Default : No
Forced : No

Audio #3
ID : 4
Format : DTS
Format/Info : Digital Theater Systems
Mode : 16
Format settings, Endianness : Big
Codec ID : A_DTS
Duration : 1h 16mn
Bit rate mode : Constant
Bit rate : 1 509 Kbps
Channel(s) : 6 channels
Channel positions : Front: L C R, Side: L R, LFE
Sampling rate : 48.0 KHz
Bit depth : 24 bits
Compression mode : Lossy
Stream size : 824 MiB (15%)
Title : DTS
Language : English
Default : No
Forced : No

Text #1
ID : 5
Format : UTF-8
Codec ID : S_TEXT/UTF8
Codec ID/Info : UTF-8 Plain Text
Title : FM
Language : Russian
Default : No
Forced : No

Text #2
ID : 6
Format : UTF-8
Codec ID : S_TEXT/UTF8
Codec ID/Info : UTF-8 Plain Text
Language : English
Default : No
Forced : No

Menu
00:00:00.000 : en:00:00:00.000
00:06:29.139 : en:00:06:29.139
00:12:21.741 : en:00:12:21.741
00:17:33.511 : en:00:17:33.511
00:22:45.864 : en:00:22:45.864
00:27:06.333 : en:00:27:06.333
00:33:33.637 : en:00:33:33.637
00:40:05.153 : en:00:40:05.153
00:45:09.498 : en:00:45:09.498
00:50:50.547 : en:00:50:50.547
00:55:28.033 : en:00:55:28.033
00:59:10.005 : en:00:59:10.005
01:04:53.473 : en:01:04:53.473
01:08:59.886 : en:01:08:59.886
01:11:04.886 : en:01:11:04.886

Правила, инструкции, FAQ!!!
Торрент  Добавлен [06 май 2018, 09:33] Скачать торрент Магнет ссылка
Скачать торрент
[ Размер 27.89 КБ / Просмотров 18 ]

Статус
Проверен 
 
Размер  5.37 ГБ
Приватный: Нет (DHT включён)
.torrent скачан  19
Как залить торрент? | Как скачать Torrent? | Ошибка в торренте? Качайте магнет  
загрузка...


     Отправить личное сообщение
   
Страница 1 из 1
Показать сообщения за:  Поле сортировки  
Начать новую тему Ответить на тему

   Похожие торренты   Автор   Ответы   Просмотры   Последнее сообщение 
В этой теме нет новых непрочитанных сообщений. Скачать торрент Дети шпионов 4D / Spy Kids: All the Time in the World in 4D (2011) BDRip 3D [1080p] [Вертикальная анаморфная стереопара]

в форуме HD-Video в 3D, Размер: 9.5 ГБ, Здоровье: 83%

Anonymous

0
5|6

208
0

28 сен 2013, 23:21

Anonymous Перейти к последнему сообщению

В этой теме нет новых непрочитанных сообщений. Скачать торрент Проверен (Rock / Avantgarde / Ethnic) Дети Picasso | Дети Пикассо (ex Чадости) / Gaya / Богдан Бобров - Дискография - 15 релизов + бонус - 1996-2015, MP3, 320 kbps и ниже

в форуме Русский Рок, Размер: 1.24 ГБ, Здоровье: 100%

Anonymous

0
49|11

154
3

23 авг 2016, 09:52

Anonymous Перейти к последнему сообщению

В этой теме нет новых непрочитанных сообщений. Скачать торрент Проверен Александр Токунов | Забытые учителя (2015) [FB2]

в форуме Фантастика, фэнтези, Размер: 993.76 КБ, Здоровье: 100%

Гость

0
12|2

58
1

22 июн 2015, 23:44

Гость Перейти к последнему сообщению

В этой теме нет новых непрочитанных сообщений. Скачать торрент Проверен Забытые истории. День мертвых (2015) PC

в форуме Логические, Размер: 72.32 МБ, Здоровье: 100%

Anonymous

0
65|13

191
42

27 мар 2016, 21:01

Anonymous Перейти к последнему сообщению

В этой теме нет новых непрочитанных сообщений. Скачать торрент Проверен Babymetal - Legend 2015 ~New Year Fox Festival~ [2015, Kawaii Metal, BDRip 1080p]

в форуме Концерты (HD-Video), Размер: 7.05 ГБ, Здоровье: 100%

Anonymous

0
1|1

55
1

23 окт 2016, 14:30

Anonymous Перейти к последнему сообщению



Сейчас этот форум просматривают: нет зарегистрированных пользователей и гости: 0


Вы не можете начинать темы
Вы не можете отвечать на сообщения
Вы не можете редактировать свои сообщения
Вы не можете удалять свои сообщения
Вы не можете добавлять вложения

Перейти:  
Ресурс не предоставляет электронные версии произведений, а занимается лишь коллекционированием и каталогизацией ссылок, присылаемых и публикуемых на форуме нашими читателями. Если вы являетесь правообладателем какого-либо представленного материала и не желаете чтобы ссылка на него находилась в нашем каталоге, свяжитесь с нами и мы незамедлительно удалим её. Файлы для обмена на трекере предоставлены пользователями сайта, и администрация не несёт ответственности за их содержание. Просьба не заливать файлы, защищенные авторскими правами, а также файлы нелегального содержания!
cron