На всех торрентах на трекере установлена скидка на скачивание в размере 100 процентов(а).
 Возможность скачивания торрента НЕ зависит от ограничений при низком ратио, низком аплоаде, требуемом ратио или требуемом аплоаде.


Начать новую тему Ответить на тему
Статистика раздачи
Размер: 6.95 ГБ | Добавлен: 30 авг 2015, 21:18 | Скачали: 6
Сидеров: 724  [0 байт/сек]    Личеров: 13  [0 байт/сек]
Пред. тема | След. тема 

Автор
Сообщение

СообщениеДобавлено: 30 авг 2015, 21:18 

Ответить с цитатой 

Вячеслав Хлопков | 100 фигур хастла (2011) DVD9

Автор (режиссер): Вячеслав Хлопков
Жанр: Танцы, хастл, обучение
Продолжительность: 03:30:00
Качество видео: DVD9
Видеокодек: MPEG2
Битрейт видео: ~4561 kb/s 25 fps
Размер кадра: 720x576
Аудиокодек: AC3 2.0
Битрейт аудио: 192 kb/s 2 ch 48000 Hz

Описание:
Хастл - это демократичный простой клубный танец, который становится все более популярным в нашей стране.

Видеопроект "100 фигур Хастла" - это наиболее полный каталог фигур, в котором подробно рассмотрены различные структурные элементы этого танца: танцевальные фигуры, смены, поддержки, дорожки, вращения, украшения.
Показано много различных вариантов поддержек: назад, вниз и и боковые поддержки, с подъемом партнерши и вращениями.
Фигуры демонстрируются по принципу "от простого к сложному" с ученицами школы "Мир Танца" разного уровня - от начинающего до самого высокого. Это сделано для того, чтобы наглядно подчеркнуть демократичный характер Хастла: его могут танцевать как профессионалы в танцах, так и люди, пришедшие на танцевальное занятие впервые в жизни.
Перефразируя известный афоризм, можно с уверенностью сказать: "Хастлу все возрасты (и уровни) покорны!"

Танцуйте, общайтесь, наслаждайтесь - получайте удовольствие от этого танца!
Общее
Полное имя : 100_FIGUR_HUSTLE\VIDEO_TS\VTS_01_1.VOB
Формат : MPEG-PS
Размер файла : 1015 Мбайт
Продолжительность : 29 м.
Режим общего битрейта : Переменный
Общий поток : 4850 Кбит/сек

Видео
Идентификатор : 224 (0xE0)
Формат : MPEG Video
Версия формата : Version 2
Профиль формата : Main@Main
Параметр BVOP формата : Да
Параметр матрицы формата : Выборочная
Параметр GOP формата : Variable
Format_Settings_PictureStructure : Frame
Продолжительность : 29 м.
Вид битрейта : Переменный
Битрейт : 4561 Кбит/сек
Максимальный битрейт : 9000 Кбит/сек
Ширина : 720 пикселей
Высота : 576 пикселей
Соотношение сторон : 4:3
Частота кадров : 25,000 кадров/сек
Стандарт вещания : PAL
Цветовое пространство : YUV
Субдискретизация насыщенности : 4:2:0
Битовая глубина : 8 бит
Тип развёртки : Чересстрочная
Порядок развёртки : Нижнее поле первое
Метод сжатия : С потерями
Бит/(Пиксели*Кадры) : 0.440
Временной код первого кадра : 00:00:00:00
Оригинал временного кода : Group of pictures header
Размер потока : 955 Мбайт (94%)
Основные цвета : BT.601 PAL
Характеристики трансфера : BT.470 System B, BT.470 System G
Коэффициенты матрицы : BT.601

Аудио
Идентификатор : 189 (0xBD)-128 (0x80)
Формат : AC-3
Формат/Информация : Audio Coding 3
Расширение режима : CM (complete main)
Параметр Endianness формата : Big
Режим смешивания : DVD-Video
Продолжительность : 29 м.
Вид битрейта : Постоянный
Битрейт : 192 Кбит/сек
Каналы : 2 канала
Расположение каналов : Front: L R
Частота : 48,0 КГц
Битовая глубина : 16 бит
Метод сжатия : С потерями
Размер потока : 40,2 Мбайт (4%)
Скриншоты:


Время раздачи: пн-пт с 10 до 23
загрузка...
Правила, инструкции, FAQ!!!
Торрент  Добавлен [30 авг 2015, 21:18] Скачать торрент Магнет ссылка
Скачать торрент
[ Размер 21.03 КБ / Просмотров 86 ]

Статус
Проверен 
 
Размер  6.95 ГБ
Приватный: Нет (DHT включён)
.torrent скачан  6
Как залить торрент? | Как скачать Torrent? | Ошибка в торренте? Качайте магнет  


     Отправить личное сообщение
   

СообщениеДобавлено: 29 июн 2018, 17:55 

Ответить с цитатой 

Зарегистрированные пользователи
Зарегистрированные пользователи

Стаж: 2 месяца 22 дня
Раздал: 0 байт
Скачал: 0 байт
Ратио: Inf.
Торренты: 0
В файле VTS_11_1.VOB с 0:11 по 0:47 сек нет звука. Какое то шипение...


Профиль     Отправить личное сообщение
   

СообщениеДобавлено: 29 июн 2018, 21:36 

Ответить с цитатой 

Администратор
Администратор
Аватара пользователя

Стаж: 5 лет 11 месяцев 5 дней
Раздал: 290.96 ГБ
Скачал: 158.38 ГБ
Ратио: 1.837
Торренты: 10
Возможно, другого все равно не будет

_________________
Не скачивается раздача? напишите об этом в теме!


Профиль     Отправить личное сообщение
   
Страница 1 из 1
Показать сообщения за:  Поле сортировки  
Начать новую тему Ответить на тему

   Похожие торренты   Автор   Ответы   Просмотры   Последнее сообщение 
В этой теме нет новых непрочитанных сообщений. Скачать торрент Проверен (Rock) Танцы Минус | Вячеслав Петкун - Дискография, 16 релизов + внеальбомное - 1996-2014, MP3, 320 kbps и ниже

в форуме Русский Рок, Размер: 1.76 ГБ, Здоровье: 100%

Anonymous

0
111|33

1378
17

23 авг 2016, 11:03

Anonymous Перейти к последнему сообщению

В этой теме нет новых непрочитанных сообщений. Скачать торрент Проверен (pop-punk) !Танцы! - Кирпичом по е**лу на! - 2011, MP3, 128-320 kbps

в форуме Русский Рок, Размер: 18.84 МБ, Здоровье: 100%

Anonymous

0
2|0

25
0

22 авг 2016, 10:39

Anonymous Перейти к последнему сообщению

В этой теме нет новых непрочитанных сообщений. Скачать торрент Проверен Георгий Ланской | Танцы мертвых волков [2011] [RTF]

в форуме Детективы и Боевики, Размер: 5.16 МБ, Здоровье: 7%

Anonymous

0
2|27

68
0

20 сен 2014, 21:06

Anonymous Перейти к последнему сообщению

В этой теме нет новых непрочитанных сообщений. Скачать торрент Проверен Танцы на Столе / Pascha Table Dance 2D, 3D (2011) Blu-Ray 1080p

в форуме Blu-ray, Размер: 16.7 ГБ, Здоровье: 100%

Anonymous

0
30|27

840
33

31 окт 2014, 19:31

Anonymous Перейти к последнему сообщению

В этой теме нет новых непрочитанных сообщений. Скачать торрент Танцы на Столе / Pascha Table Dance 3D HSBS (2011) BDRip 1080p | 3D-Video

в форуме HD-Video в 3D, Размер: 5.22 ГБ, Здоровье: 100%

Anonymous

0
104|16

309
280

21 фев 2014, 08:31

Anonymous Перейти к последнему сообщению



Сейчас этот форум просматривают: нет зарегистрированных пользователей и гости: 0


Вы не можете начинать темы
Вы не можете отвечать на сообщения
Вы не можете редактировать свои сообщения
Вы не можете удалять свои сообщения
Вы не можете добавлять вложения

Перейти:  
Ресурс не предоставляет электронные версии произведений, а занимается лишь коллекционированием и каталогизацией ссылок, присылаемых и публикуемых на форуме нашими читателями. Если вы являетесь правообладателем какого-либо представленного материала и не желаете чтобы ссылка на него находилась в нашем каталоге, свяжитесь с нами и мы незамедлительно удалим её. Файлы для обмена на трекере предоставлены пользователями сайта, и администрация не несёт ответственности за их содержание. Просьба не заливать файлы, защищенные авторскими правами, а также файлы нелегального содержания!
cron