На всех торрентах на трекере установлена скидка на скачивание в размере 100 процентов(а).
 Возможность скачивания торрента НЕ зависит от ограничений при низком ратио, низком аплоаде, требуемом ратио или требуемом аплоаде.


Начать новую тему Ответить на тему
Статистика раздачи
Размер: 6.18 ГБ | Добавлен: 30 сен 2013, 20:53 | Скачали: 1
Сидеров: 0  [0 байт/сек]    Личеров: 0  [0 байт/сек]
Пред. тема | След. тема 

Автор
Сообщение

СообщениеДобавлено: 30 сен 2013, 20:53 

Ответить с цитатой 




Вундеркинды
The Prodigies



Год выпуска: 2011
Страна: Великобритания, Индия, Бельгия, Канада, Люксембург, Франция (Warner Bros. Pictures, Studio 37)
Жанр: Мультфильм, Фантастика, Боевик, Триллер
Продолжительность: 01:35:28
Перевод: Любительский одноголосый закадровый (den904)

Режиссёр: Антуан Шаррейрон / Antoine Charreyron

Роли озвучивали: Джеффри Ивэн Томас (Jimbo), Лорен Эшли Картер (Liza Everton), Мун Дайлли (Melanie Killian), Лорен Демианофф (FBI Big), Алекс Мартин (Jenkins possessed), Нилтон Мартинс (Sammy), Джейкоб Розенбаум (Gil / Young Jimbo), Бен Шиллинг, Карен Страссман (мама Jimbo), Клер Тилль (Flora Blump), Изабель Ван Ваес (Anne), Патрик Во (Diaz)

Описание: Мультфильм рассказывает о судьбе пятерых нью-йоркских тинейджеров со сверхспособностями в не самый удачный период переходного возраста. Нападки со стороны окружающих заставляют их не на шутку озлобиться и начать методично сравнивать город с землей. Но есть и шестой, который, вроде бы, может спасти нас от несвоевременного Апокалипсиса.

Доп. информация: Мультфильм не для детей! Присутствует ненормативная лексика!



Премьера: 1 февраля 2011





Качество: BDRip (by Ash61)
Контейнер: MKV
Видео кодек: x264
Аудио кодек: AC3



Видео: AVC / 23,976 fps / 1920х1040p / 8000 Kbps

Аудио:
#1 - Русский / AC3 / 48 KHz / 5.1 ch / 640 Kbps (VO - den904) (по переводу dsa69) (edit by Ash61)
#2 - Английский / AC3 / 48 KHz / 5.1 ch / 640 Kbps

Субтитры: Отсутствуют

General
Unique ID : 254938029894751673880856677505661441005 (0xBFCB47509BCAC566AA12C03F756493ED)
Complete name : E:DownloadsTheProdigies(2011)1080p.AC3(Ash61)VO-den904.mkv
Format : Matroska
Format version : Version 2
File size : 6.18 GiB
Duration : 1h 35mn
Overall bit rate : 9 267 Kbps
Movie name : Вундеркинды / The Prodigies (2011)
Encoded date : UTC 2013-09-24 13:18:28
Writing application : mkvmerge v5.8.0 ('No Sleep / Pillow') built on Sep 2 2012 15:37:04
Writing library : libebml v1.2.3 + libmatroska v1.3.0

Video
ID : 1
Format : AVC
Format/Info : Advanced Video Codec
Format profile : High@L4.1
Format settings, CABAC : Yes
Format settings, ReFrames : 4 frames
Codec ID : V_MPEG4/ISO/AVC
Duration : 1h 35mn
Bit rate : 8 000 Kbps
Width : 1 920 pixels
Height : 1 040 pixels
Display aspect ratio : 1.85:1
Frame rate mode : Constant
Frame rate : 23.976 fps
Color space : YUV
Chroma subsampling : 4:2:0
Bit depth : 8 bits
Scan type : Progressive
Bits/(Pixel*Frame) : 0.167
Stream size : 5.20 GiB (84%)
Title : BDRip by Ash61
Writing library : x264 core 133 r2334 a3ac64b
Encoding settings : cabac=1 / ref=4 / deblock=1:-3:-3 / analyse=0x3:0x113 / me=umh / subme=10 / psy=1 / psy_rd=1.00:0.15 / mixed_ref=1 / me_range=32 / chroma_me=1 / trellis=2 / 8x8dct=1 / cqm=0 / deadzone=21,11 / fast_pskip=1 / chroma_qp_offset=-3 / threads=12 / lookahead_threads=2 / sliced_threads=0 / nr=0 / decimate=1 / interlaced=0 / bluray_compat=0 / constrained_intra=0 / bframes=9 / b_pyramid=2 / b_adapt=2 / b_bias=0 / direct=3 / weightb=1 / open_gop=0 / weightp=2 / keyint=240 / keyint_min=23 / scenecut=40 / intra_refresh=0 / rc_lookahead=60 / rc=2pass / mbtree=0 / bitrate=8000 / ratetol=3.0 / qcomp=0.70 / qpmin=0 / qpmax=69 / qpstep=4 / cplxblur=20.0 / qblur=0.5 / vbv_maxrate=40000 / vbv_bufsize=30000 / nal_hrd=none / ip_ratio=1.40 / pb_ratio=1.30 / aq=1:0.70
Default : Yes
Forced : No

Audio #1
ID : 2
Format : AC-3
Format/Info : Audio Coding 3
Mode extension : CM (complete main)
Format settings, Endianness : Big
Codec ID : A_AC3
Duration : 1h 35mn
Bit rate mode : Constant
Bit rate : 640 Kbps
Channel(s) : 6 channels
Channel positions : Front: L C R, Side: L R, LFE
Sampling rate : 48.0 KHz
Bit depth : 16 bits
Compression mode : Lossy
Stream size : 437 MiB (7%)
Title : Одноголосый закадровый - den904 (по переводу dsa69) (edit by Ash61)
Language : Russian
Default : Yes
Forced : No

Audio #2
ID : 3
Format : AC-3
Format/Info : Audio Coding 3
Mode extension : CM (complete main)
Format settings, Endianness : Big
Codec ID : A_AC3
Duration : 1h 35mn
Bit rate mode : Constant
Bit rate : 640 Kbps
Channel(s) : 6 channels
Channel positions : Front: L C R, Side: L R, LFE
Sampling rate : 48.0 KHz
Bit depth : 16 bits
Compression mode : Lossy
Stream size : 437 MiB (7%)
Language : English
Default : No
Forced : No

Menu
00:00:00.000 : :1
00:05:27.827 : :2
00:09:46.419 : :3
00:14:06.012 : :4
00:19:46.310 : :5
00:27:55.549 : :6
00:36:05.622 : :7
00:42:50.276 : :8
00:51:45.394 : :9
00:56:32.180 : :10
01:01:33.815 : :11
01:05:43.398 : :12
01:12:26.425 : :13
01:16:52.483 : :14
01:24:54.089 : :15
01:28:30.096 : :16

загрузка...
Правила, инструкции, FAQ!!!
Торрент  Добавлен [30 сен 2013, 20:53] Скачать торрент Магнет ссылка
Скачать торрент
[ Размер 31.34 КБ / Просмотров 29 ]

Статус  
 
Размер  6.18 ГБ
Приватный: Нет (DHT включён)
.torrent скачан  1
Как залить торрент? | Как скачать Torrent? | Ошибка в торренте? Качайте магнет  


     Отправить личное сообщение
   
Страница 1 из 1
Показать сообщения за:  Поле сортировки  
Начать новую тему Ответить на тему

   Похожие торренты   Автор   Ответы   Просмотры   Последнее сообщение 
В этой теме нет новых непрочитанных сообщений. Скачать торрент Вундеркинды / The Prodigies (2011) HDRip

в форуме Зарубежные мультфильмы, Размер: 1.46 ГБ, Здоровье: 100%

Anonymous

0
2|0

93
0

30 сен 2013, 20:31

Anonymous Перейти к последнему сообщению

В этой теме нет новых непрочитанных сообщений. Скачать торрент Тор / Thor (2011) BDRip 1080p

в форуме 720p | 1080p, Размер: 7.76 ГБ, Здоровье: 0%

Anonymous

0
0|0

180
1

19 авг 2013, 13:32

Anonymous Перейти к последнему сообщению

В этой теме нет новых непрочитанных сообщений. Скачать торрент Погоня / Abduction (2011) BDRip 1080p

в форуме 720p | 1080p, Размер: 7.95 ГБ, Здоровье: 0%

Anonymous

0
0|0

114
0

01 авг 2013, 12:47

Anonymous Перейти к последнему сообщению

В этой теме нет новых непрочитанных сообщений. Скачать торрент Потомки / The Descendants (2011) BDRip 1080p

в форуме 720p | 1080p, Размер: 7.94 ГБ, Здоровье: 0%

Anonymous

0
0|0

125
0

23 окт 2013, 19:13

Anonymous Перейти к последнему сообщению

В этой теме нет новых непрочитанных сообщений. Скачать торрент Тор в 3Д / Thor 3D (2011) BDRip 1080p | 3D-Video

в форуме HD-Video в 3D, Размер: 10.84 ГБ, Здоровье: 100%

Anonymous

0
24|1

92
59

26 янв 2014, 19:22

Anonymous Перейти к последнему сообщению



Сейчас этот форум просматривают: нет зарегистрированных пользователей и гости: 0


Вы не можете начинать темы
Вы не можете отвечать на сообщения
Вы не можете редактировать свои сообщения
Вы не можете удалять свои сообщения
Вы не можете добавлять вложения

Перейти:  
Ресурс не предоставляет электронные версии произведений, а занимается лишь коллекционированием и каталогизацией ссылок, присылаемых и публикуемых на форуме нашими читателями. Если вы являетесь правообладателем какого-либо представленного материала и не желаете чтобы ссылка на него находилась в нашем каталоге, свяжитесь с нами и мы незамедлительно удалим её. Файлы для обмена на трекере предоставлены пользователями сайта, и администрация не несёт ответственности за их содержание. Просьба не заливать файлы, защищенные авторскими правами, а также файлы нелегального содержания!
cron