На всех торрентах на трекере установлена скидка на скачивание в размере 100 процентов(а).
 Возможность скачивания торрента НЕ зависит от ограничений при низком ратио, низком аплоаде, требуемом ратио или требуемом аплоаде.


Начать новую тему Ответить на тему
Статистика раздачи
Размер: 2.19 ГБ | Добавлен: 06 ноя 2012, 22:44 | Скачали: 0
Сидеров: 0  [0 байт/сек]    Личеров: 0  [0 байт/сек]
Пред. тема | След. тема 

Автор
Сообщение

СообщениеДобавлено: 06 ноя 2012, 22:41 

Вспомнить всё / Total Recall



Описание: Он — обычный рабочий-строитель, живущий в маленькой квартирке в захудалом районе города будущего где-то в Новой Азии. Хотя собственная жизнь его в целом устраивает, он не может избавиться от чувства, что ему хочется чего-то большего. Потребность в новых будоражащих впечатлениях приводит его в офис компании «Вспомнить всё», имплантирующей в память своих клиентов воспоминания-фантазии, которые они могут получить не рискуя при этом пережить сами события в реальности. Пока герой выбирает, какие именно воспоминания ему приобрести, отряд спецназа штурмует комнату, где он находится, и уже было берет его под арест. К своему собственному удивлению, он молниеносно уничтожает весь отряд при помощи невероятных бойцовских навыков, о владении которыми он и не подозревал…

Год выпуска: 2012
Страна: США, Канада
Студия: Original Film
Продолжительность: 01:53:26

Перевод: Профессиональный (дублированный) | лицензия
Оригинальная аудиодорожка: английский
Субтитры: русский
Жанр: фантастика, боевик, триллер, приключения

Режиссер:Лен Уайзман / Len Wiseman

В фильме снимались: Колин Фаррелл, Кейт Бекинсейл, Джессика Бил, Брайан Крэнстон, Джон Чо, Букем Вудбайн, Билл Найи, Уилл Юн Ли, Милтон Барнс, Джеймс Макгоун...

Роли дублировали: Александр Гаврилин, Марьяна Спивак, Елена Ивасишина, Валерий Сторожик, Дмитрий Курта...





Исходник: DVD5
Качество: DVDRip
Формат: AVI

Видео: 704x288 (2.40:1), 25.000 fps, XviD MPEG-4 ~1919 kbps avg, 0.379 bit/pixel
Аудио 1: Русский: 48 kHz, Dolby AC3, 6 ch, 384.00 kbps Constant | дублированный
Аудио 2: Английский: 48 kHz, Dolby AC3, 6 ch, 448.00 kbps Constant
Формат субтитров: SoftSub (srt)

Общее
Полное имя : Vspomnit.vse.2012.D.DVDRip_[Youtracker]_by_avproh.avi
Формат : AVI
Формат/Информация : Audio Video Interleave
Профиль формата : OpenDML
Размер файла : 2,19 Гбайт
Продолжительность : 1 ч. 53 м.
Общий поток : 2769 Кбит/сек
Программа кодирования : VirtualDubMod 1.5.10.3 (build 2550/release)
Библиотека кодирования : VirtualDubMod build 2550/release

Видео
Идентификатор : 0
Формат : MPEG-4 Visual
Профиль формата : Advanced Simple@L5
Параметр BVOP формата : 1
Параметр QPel формата : Нет
Параметр GMC формата : Без точки перехода
Параметр матрицы формата : Выборочная
Идентификатор кодека : XVID
Идентификатор кодека/Подсказка : XviD
Продолжительность : 1 ч. 53 м.
Битрейт : 1919 Кбит/сек
Ширина : 704 пикселя
Высота : 288 пикселей
Соотношение сторон : 2,40:1
Частота кадров : 25,000 кадров/сек
Цветовое пространство : YUV
Субдискретизация насыщенности : 4:2:0
Битовая глубина : 8 бит
Тип развёртки : Прогрессивная
Метод сжатия : С потерями
Бит/(Пиксели*Кадры) : 0.379
Размер потока : 1,52 Гбайт (69%)
Библиотека кодирования : XviD 65

Аудио #1
Идентификатор : 1
Формат : AC-3
Формат/Информация : Audio Coding 3
Расширение режима : CM (complete main)
Параметр Endianness формата : Big
Идентификатор кодека : 2000
Продолжительность : 1 ч. 53 м.
Вид битрейта : Постоянный
Битрейт : 384 Кбит/сек
Каналы : 6 каналов
Расположение каналов : Front: L C R, Side: L R, LFE
Частота : 48,0 КГц
Битовая глубина : 16 бит
Метод сжатия : С потерями
Размер потока : 312 Мбайт (14%)
Выравнивание : Разделение по промежуткам
Продолжительность промежутка : 40 мс. (1,00 видеокадр)
Время предзагрузки промежутка : 500 мс.

Аудио #2
Идентификатор : 2
Формат : AC-3
Формат/Информация : Audio Coding 3
Расширение режима : CM (complete main)
Параметр Endianness формата : Big
Идентификатор кодека : 2000
Продолжительность : 1 ч. 53 м.
Вид битрейта : Постоянный
Битрейт : 448 Кбит/сек
Каналы : 6 каналов
Расположение каналов : Front: L C R, Side: L R, LFE
Частота : 48,0 КГц
Битовая глубина : 16 бит
Метод сжатия : С потерями
Размер потока : 363 Мбайт (16%)
Выравнивание : Разделение по промежуткам
Продолжительность промежутка : 40 мс. (1,00 видеокадр)
Время предзагрузки промежутка : 500 мс.




Приятного просмотра!
загрузка...
Правила, инструкции, FAQ!!!
Торрент  Добавлен [06 ноя 2012, 22:44] Скачать торрент
Скачать торрент
[ Размер 11.82 КБ / Просмотров 19 ]

Статус
Проверен Bionik (06 ноя 2012, 23:58)
 
Размер  2.19 ГБ
Приватный: Нет (DHT включён)
.torrent скачан  0
Как залить торрент? | Как скачать Torrent? | Как смотреть и слушать онлайн?  


     Отправить личное сообщение
   
Страница 1 из 1
Показать сообщения за:  Поле сортировки  
Начать новую тему Ответить на тему

   Похожие торренты   Автор   Ответы   Просмотры   Последнее сообщение 
В этой теме нет новых непрочитанных сообщений. Скачать торрент Проверен (Proto Prog / Jazz Rock) Total Issue - Total Issue - 1971 (Reissue 2012) - 2012, FLAC (image+.cue), lossless

в форуме Progressive & Art-Rock, Размер: 215.7 МБ, Здоровье: 100%

Anonymous

0
1|0

4
1

01 сен 2016, 23:41

Anonymous Перейти к последнему сообщению

В этой теме нет новых непрочитанных сообщений. Скачать торрент Проверен (House) VA - Total House Presents Ibiza 2012 (Total House [TH034]) WEB - 2012, MP3 (tracks), 320 kbps

в форуме House, Размер: 227.53 МБ, Здоровье: 0%

Anonymous

0
0|0

0
0

22 дек 2016, 23:25

Anonymous Перейти к последнему сообщению

В этой теме нет новых непрочитанных сообщений. Скачать торрент Проверен Total War: Warhammer [v 1.6.0 + 12 DLC] (2016) PC | Лицензия

в форуме Стратегии, Размер: 24.93 ГБ, Здоровье: 14%

Anonymous

0
35|240

8
29

18 июн 2017, 00:09

Anonymous Перейти к последнему сообщению

В этой теме нет новых непрочитанных сообщений. Скачать торрент Проверен Испанец (2012) DVDRip | лицензия

в форуме Военные, Размер: 1.46 ГБ, Здоровье: 100%

Anonymous

0
36|2

270
30

04 авг 2014, 22:56

Anonymous Перейти к последнему сообщению

В этой теме нет новых непрочитанных сообщений. Скачать торрент Проверен Алчность / Avarice (2012) DVDRip | Лицензия

в форуме Фантастика, Фэнтези, Размер: 1.37 ГБ, Здоровье: 100%

Anonymous

0
292|11

100
61

07 ноя 2014, 20:11

Anonymous Перейти к последнему сообщению



Сейчас этот форум просматривают: нет зарегистрированных пользователей и гости: 1


Вы не можете начинать темы
Вы не можете отвечать на сообщения
Вы не можете редактировать свои сообщения
Вы не можете удалять свои сообщения
Вы не можете добавлять вложения

Перейти:  

!ВНИМАНИЕ!
 Ресурс не предоставляет электронные версии произведений, а занимается лишь коллекционированием и каталогизацией ссылок, присылаемых и публикуемых на форуме нашими читателями. Если вы являетесь правообладателем какого-либо представленного материала и не желаете чтобы ссылка на него находилась в нашем каталоге, свяжитесь с нами и мы незамедлительно удалим её. Файлы для обмена на трекере предоставлены пользователями сайта, и администрация не несёт ответственности за их содержание. Просьба не заливать файлы, защищенные авторскими правами, а также файлы нелегального содержания!