e-Commerce Partners Network
 На всех торрентах на трекере установлена скидка на скачивание в размере 100 процентов(а).
 Возможность скачивания торрента НЕ зависит от ограничений при низком ратио, низком аплоаде, требуемом ратио или требуемом аплоаде.


Начать новую тему Ответить на тему
Статистика раздачи
Размер: 4.37 ГБ | Добавлен: 29 июн 2013, 19:32 | Скачали: 1
Сидеров: 0  [0 байт/сек]    Личеров: 0  [0 байт/сек]
Пред. тема | След. тема 

Автор
Сообщение

СообщениеДобавлено: 29 июн 2013, 19:32 

Название: Возвращение Супермена
Оригинальное название: Superman Returns
Год выхода: 2006
Жанр: фантастика, фэнтези, боевик, приключения
Режиссер: Брайан Сингер

В ролях: Брэндон Рут, Кейт Босворт, Кевин Спейси, Джеймс Марсден, Паркер Поузи, Фрэнк Ланджелла, Сэм Хантингтон, Ева Мари Сэйнт, Марлон Брандо, Кэл Пенн, Тристан Лэйк Либу, Дэвид Фабрицио, Йен Робертс, Винсент Стоун, Джек Ларсон, Ноэль Нилл, Джеймс Карен, Стефан Бендер, Пета Уилсон, Джефф Труман, Барбара Энджелл, Йен Блисс, Ансуя Нэйтан, Ричард Брэнсон, Сэм Брэнсон и др.

О фильме:
Расширенная версия блокбастера 2006 года «Возвращение Супермена».
Создавалась фанатами для фанатов. Включает в себя 20 минут дополнительных и расширенных эпизодов.

Возвратившись на Землю после своего многолетнего и загадочного отсутствия, Супермен обнаруживает, что его заклятый враг Лекс Лютор опять строит ему козни, а его возлюбленная Лоис Лэйн вроде бы уже устроила свою личную жизнь. Кроме того, Супермен понимает, что за то время, когда его не было, люди научились прекрасно обходиться без него.

Чтобы защитить мир, который он любит, от катастрофических разрушений, Супермену приходится преодолевать огромные расстояния: он опускается в океанские глубины и поднимается на космические высоты…



Страна: США
Студия: DC Comics / Legendary Pictures / Warner Bros. Pictures
Продолжительность: 02:52:06
Перевод: Профессиональный (дублированный) + Профессиональные (многоголосые) вставки на расширенные сцены!


Качество: BDRip 720p
Формат: MKV
Видео кодек: H.264
Аудио кодек: AC3

Видео: H.264, 1280x528 (2.40:1), 23.976 fps, ~3250 Kbps, 0.201 bit/pixel
| Аудио #1: 48 kHz, AC3, 2ch, 192 Kbps | Rus | DUB + MVO
| Аудио #4: 48 kHz, AC3, 2ch, 192 Kbps | Eng | Original



Релиз от:



General
Unique ID : 194116680967654697970731819289422535841 (0x9209834AAA914312861E043B3A571CA1)
Complete name : Superman.Returns.Extended.Cut.2006.BDRip.720p.H.264.AC3.-Nesmertelnoe.oruzhie.mkv
Format : Matroska
Format version : Version 2
File size : 4.37 GiB
Duration : 2h 52mn
Overall bit rate : 3 635 Kbps
Movie name : Возвращение Супермена / Superman Returns / Расширенная версия / Extended Cut
Encoded date : UTC 2013-06-29 12:53:31
Writing application : mkvmerge v5.2.1 ('A Far Off Place') built on Jan 2 2012 23:21:10
Writing library : libebml v1.2.3 + libmatroska v1.3.0

Video
ID : 1
Format : AVC
Format/Info : Advanced Video Codec
Format profile : High@L4.1
Format settings, CABAC : Yes
Format settings, ReFrames : 3 frames
Codec ID : V_MPEG4/ISO/AVC
Duration : 2h 52mn
Bit rate : 3 250 Kbps
Width : 1 280 pixels
Height : 528 pixels
Display aspect ratio : 2.40:1
Frame rate mode : Constant
Frame rate : 23.976 fps
Color space : YUV
Chroma subsampling : 4:2:0
Bit depth : 8 bits
Scan type : Progressive
Bits/(Pixel*Frame) : 0.201
Stream size : 3.82 GiB (87%)
Writing library : x264 core 120 r2164 da19765
Encoding settings : cabac=1 / ref=3 / deblock=1:-1:-1 / analyse=0x3:0x113 / me=hex / subme=9 / psy=1 / psy_rd=1.00:0.00 / mixed_ref=1 / me_range=16 / chroma_me=1 / trellis=1 / 8x8dct=1 / cqm=0 / deadzone=21,11 / fast_pskip=1 / chroma_qp_offset=-2 / threads=3 / sliced_threads=0 / nr=0 / decimate=1 / interlaced=0 / bluray_compat=0 / constrained_intra=0 / bframes=3 / b_pyramid=0 / b_adapt=1 / b_bias=0 / direct=1 / weightb=1 / open_gop=0 / weightp=2 / keyint=240 / keyint_min=23 / scenecut=40 / intra_refresh=0 / rc_lookahead=40 / rc=2pass / mbtree=1 / bitrate=3250 / ratetol=1.0 / qcomp=0.60 / qpmin=10 / qpmax=51 / qpstep=4 / cplxblur=20.0 / qblur=0.5 / vbv_maxrate=50000 / vbv_bufsize=50000 / nal_hrd=none / ip_ratio=1.40 / aq=1:1.00
Language : English
Default : Yes
Forced : No

Audio #1
ID : 2
Format : AC-3
Format/Info : Audio Coding 3
Mode extension : CM (complete main)
Format settings, Endianness : Big
Codec ID : A_AC3
Duration : 2h 52mn
Bit rate mode : Constant
Bit rate : 192 Kbps
Channel(s) : 2 channels
Channel positions : Front: L R
Sampling rate : 48.0 KHz
Bit depth : 16 bits
Compression mode : Lossy
Stream size : 236 MiB (5%)
Title : DUB + MVO
Language : Russian
Default : Yes
Forced : No

Audio #2
ID : 3
Format : AC-3
Format/Info : Audio Coding 3
Mode extension : CM (complete main)
Format settings, Endianness : Big
Codec ID : A_AC3
Duration : 2h 52mn
Bit rate mode : Constant
Bit rate : 192 Kbps
Channel(s) : 2 channels
Channel positions : Front: L R
Sampling rate : 48.0 KHz
Bit depth : 16 bits
Compression mode : Lossy
Stream size : 236 MiB (5%)
Title : Original
Language : English
Default : No
Forced : No

00:05:03 – «Путешествие Кал-Эла к обломкам Криптона»
00:12:54 – «Марта Кент играет со своим другом в скраббл»
00:17:58 – «Лекс недоволен количеством оливок»
00:20:47 – «Лекс с сообщниками в поисках Крепости Одиночества»
00:24:50 – «Расширенная сцена подъема Кларка»
00:29:14 – «Расширенная сцена в сарае»
00:30:50 – «Кларк закапывает корабль и обнаруживает газеты»
00:35:20 – «Кларк знакомится с Беном»
01:19:00 – «Расширенная версия с новостями из разных стран»
00:47:23 – «Кларк и Джимми обсуждают Лоис»
01:54:18 – «Лекс находит труп сообщника»
02:31:47 – «Пэрри Уайт о том, что случилось с криптонитовым континентом»

загрузка...
Правила, инструкции, FAQ!!!
Торрент  Добавлен [29 июн 2013, 19:32] Скачать торрент
Скачать торрент
[ Размер 11.5 КБ / Просмотров 11 ]

Статус  
 
Размер  4.37 ГБ
Приватный: Нет (DHT включён)
.torrent скачан  1
Как залить торрент? | Как скачать Torrent? | Как смотреть и слушать онлайн?  


     Отправить личное сообщение
   
Страница 1 из 1
Показать сообщения за:  Поле сортировки  
Начать новую тему Ответить на тему

   Похожие торренты   Автор   Ответы   Просмотры   Последнее сообщение 
В этой теме нет новых непрочитанных сообщений. Скачать торрент Проверен Бэтмен против Супермена: На заре справедливости / Batman v Superman: Dawn of Justice (2016) BDRip 720p | Расширенная версия

в форуме 720p | 1080p, Размер: 8.56 ГБ, Здоровье: 100%

Гость

0
631|172

82
734

13 июл 2016, 00:19

Гость Перейти к последнему сообщению

В этой теме нет новых непрочитанных сообщений. Скачать торрент Проверен Бэтмен против Супермена: На заре справедливости / Batman v Superman: Dawn of Justice (2016) HDRip | Расширенная версия | iTunes

в форуме Фантастика, Фэнтези, Размер: 2.19 ГБ, Здоровье: 100%

Гость

0
523|93

120
679

13 июл 2016, 00:15

Гость Перейти к последнему сообщению

В этой теме нет новых непрочитанных сообщений. Скачать торрент Проверен Возвращение Духа Натха / Bhoothnath Returns (2014) BDRip 720p | P

в форуме Индийское кино, Размер: 6.97 ГБ, Здоровье: 100%

Anonymous

0
81|28

381
90

29 июл 2015, 23:35

Anonymous Перейти к последнему сообщению

В этой теме нет новых непрочитанных сообщений. Скачать торрент Аватар / Avatar (Джеймс Кэмерон / James Cameron) [2009 г., фантастика, BDRip-AVC] [Расширенная версия / Extended Cut] Dub

в форуме Фантастика, Фэнтези, Размер: 2.91 ГБ, Здоровье: 100%

Anonymous

0
171|11

108
3

01 апр 2014, 09:36

Anonymous Перейти к последнему сообщению

В этой теме нет новых непрочитанных сообщений. Скачать торрент Рыцарь дня / Knight and Day (Джеймс Мэнголд / James Mangold) [2010, США, Боевик, комедия, приключения, BDRip] [Расширенная версия / Extended cut] Dub

в форуме Боевики, Размер: 1.46 ГБ, Здоровье: 100%

Anonymous

0
56|19

45
0

16 апр 2014, 07:48

Anonymous Перейти к последнему сообщению



Сейчас этот форум просматривают: нет зарегистрированных пользователей и гости: 2


Вы не можете начинать темы
Вы не можете отвечать на сообщения
Вы не можете редактировать свои сообщения
Вы не можете удалять свои сообщения
Вы не можете добавлять вложения

Перейти:  

!ВНИМАНИЕ!
 Ресурс не предоставляет электронные версии произведений, а занимается лишь коллекционированием и каталогизацией ссылок, присылаемых и публикуемых на форуме нашими читателями. Если вы являетесь правообладателем какого-либо представленного материала и не желаете чтобы ссылка на него находилась в нашем каталоге, свяжитесь с нами и мы незамедлительно удалим её. Файлы для обмена на трекере предоставлены пользователями сайта, и администрация не несёт ответственности за их содержание. Просьба не заливать файлы, защищенные авторскими правами, а также файлы нелегального содержания!