На всех торрентах на трекере установлена скидка на скачивание в размере 100 процентов(а).
 Возможность скачивания торрента НЕ зависит от ограничений при низком ратио, низком аплоаде, требуемом ратио или требуемом аплоаде.


Начать новую тему Ответить на тему
Статистика раздачи
Размер: 2.56 ГБ | Добавлен: 29 апр 2014, 13:54 | Скачали: 0
Сидеров: 0  [0 байт/сек]    Личеров: 0  [0 байт/сек]
Пред. тема | След. тема 

Автор
Сообщение

СообщениеДобавлено: 29 апр 2014, 13:54 

Восставший из ада 6: Поиски ада / Hellraiser: Hellseeker

Страна: США
Жанр: ужасы
Год выпуска: 2002
Продолжительность: 01:28:49

Перевод: Профессиональный (многоголосый закадровый)
Перевод (2): Авторский (одноголосый закадровый) Доп.инфо о переводе2 А. Гаврилов
Перевод (3): Авторский (одноголосый закадровый) Доп.инфо о переводе3 С. Визгунов
Перевод (4): Авторский (одноголосый закадровый) Доп.инфо о переводе4 А. Дольский
Cубтитры: английские
Оригинальная аудиодорожка: английский

Режиссер: Рик Бота / Rick Bota

В ролях: Дин Уинтерс, Эшли Лоуренс, Даг Брэдли, Рэйчел Хейярд, Сара-Джейн Редмонд, Джоди Томпсон, Каарен Де Зилва, Уильям С. Тейлор, Майкл Роджерс, Тревор Уайт

Описание: Спустя месяц после автокатастрофы, когда Тревор пришел в себя, выясняется, что тело его жены Кирсти так и не было найдено!
Он возвращается к работе, но с ним начинают происходить ужасные вещи. Тревор оказывается в адском лабиринте, где непостижимым кошмаром сплелись жизнь и смерть. И он должен заплатить цену прежде, чем узнает ответ…


Качество видео: DVDRip-AVC
Формат видео: MKV
Видео кодек: H.264/AVC

Видео: 720 x 400 / 23.976 fps / ~ 2 209 Kbps / 0.32 bit/pixel
Аудио: Русский 48 kHz, AC3 Dolby Digital, 3/2 (L,C,R,l,r) + LFE ch, ~448.00 kbps
Аудио 2: Русский AC3 Dolby Digital / 2.0 / 48 KHz / ~192 kbp/s
Аудио 3: Русский 48 kHz, AC3 Dolby Digital, 3/2 (L,C,R,l,r) + LFE ch, ~384.00 kbps
Аудио 4: Русский 48 kHz, AC3 Dolby Digital, 3/2 (L,C,R,l,r) + LFE ch, ~448.00 kbps
Аудио 5: Английский 48 kHz, AC3 Dolby Digital, 3/2 (L,C,R,l,r) + LFE ch, ~448.00 kbps

MediaInfo
HELLRAISER 6_MVO_3 AVO_Eng.mkv
Format : Matroska
File size : 2.56 GiB
Duration : 1h 28mn
Overall bit rate : 4 132 Kbps
Encoded date : UTC 2011-07-29 10:52:31
Writing application : mkvmerge v4.4.0 ('Die Wiederkehr') сборка от Oct 31 2010 21:52:48
Writing library : libebml v1.0.0 + libmatroska v1.0.0

Video
ID : 1
Format : AVC
Format/Info : Advanced Video Codec
Format profile : High@L4.0
Format settings, CABAC : Yes
Format settings, ReFrames : 5 frames
Codec ID : V_MPEG4/ISO/AVC
Duration : 1h 28mn
Bit rate : 2 209 Kbps
Width : 720 pixels
Height : 400 pixels
Display aspect ratio : 16:9
Frame rate : 23.976 fps
Color space : YUV
Chroma subsampling : 4:2:0
Bit depth : 8 bits
Scan type : Progressive
Bits/(Pixel*Frame) : 0.320
Stream size : 1.32 GiB (52%)
Title : HELLRAISER 6: Hellseeker
Writing library : x264 core 115 r1937 aa21558
Encoding settings : cabac=1 / ref=5 / deblock=1:-2:-1 / analyse=0x3:0x113 / me=umh / subme=8 / psy=1 / psy_rd=1.00:0.20 / mixed_ref=1 / me_range=16 / chroma_me=1 / trellis=1 / 8x8dct=1 / cqm=0 / deadzone=21,11 / fast_pskip=1 / chroma_qp_offset=-3 / threads=6 / sliced_threads=0 / nr=0 / decimate=1 / interlaced=0 / bluray_compat=0 / constrained_intra=0 / bframes=3 / b_pyramid=2 / b_adapt=2 / b_bias=0 / direct=3 / weightb=1 / open_gop=0 / weightp=2 / keyint=250 / keyint_min=23 / scenecut=40 / intra_refresh=0 / rc_lookahead=50 / rc=2pass / mbtree=1 / bitrate=2209 / ratetol=1.0 / qcomp=0.60 / qpmin=0 / qpmax=69 / qpstep=4 / cplxblur=20.0 / qblur=0.5 / vbv_maxrate=17500 / vbv_bufsize=14000 / nal_hrd=none / ip_ratio=1.40 / aq=1:1.00
Language : English

Audio #1
ID : 2
Format : AC-3
Format/Info : Audio Coding 3
Mode extension : CM (complete main)
Codec ID : A_AC3
Duration : 1h 28mn
Bit rate mode : Constant
Bit rate : 448 Kbps
Channel(s) : 6 channels
Channel positions : Front: L C R, Side: L R, LFE
Sampling rate : 48.0 KHz
Bit depth : 16 bits
Compression mode : Lossy
Stream size : 285 MiB (11%)
Title : Многоголосый
Language : Russian

Audio #2
ID : 3
Format : AC-3
Format/Info : Audio Coding 3
Mode extension : CM (complete main)
Codec ID : A_AC3
Duration : 1h 28mn
Bit rate mode : Constant
Bit rate : 192 Kbps
Channel(s) : 2 channels
Channel positions : Front: L R
Sampling rate : 48.0 KHz
Bit depth : 16 bits
Compression mode : Lossy
Stream size : 122 MiB (5%)
Title : Гаврилов
Language : Russian

Audio #3
ID : 4
Format : AC-3
Format/Info : Audio Coding 3
Mode extension : CM (complete main)
Codec ID : A_AC3
Duration : 1h 28mn
Bit rate mode : Constant
Bit rate : 384 Kbps
Channel(s) : 6 channels
Channel positions : Front: L C R, Side: L R, LFE
Sampling rate : 48.0 KHz
Bit depth : 16 bits
Compression mode : Lossy
Stream size : 244 MiB (9%)
Title : Визгунов
Language : Russian

Audio #4
ID : 5
Format : AC-3
Format/Info : Audio Coding 3
Mode extension : CM (complete main)
Codec ID : A_AC3
Duration : 1h 28mn
Bit rate mode : Constant
Bit rate : 448 Kbps
Channel(s) : 6 channels
Channel positions : Front: L C R, Side: L R, LFE
Sampling rate : 48.0 KHz
Bit depth : 16 bits
Compression mode : Lossy
Stream size : 285 MiB (11%)
Title : Дольский
Language : Russian

Audio #5
ID : 6
Format : AC-3
Format/Info : Audio Coding 3
Mode extension : CM (complete main)
Codec ID : A_AC3
Duration : 1h 28mn
Bit rate mode : Constant
Bit rate : 448 Kbps
Channel(s) : 6 channels
Channel positions : Front: L C R, Side: L R, LFE
Sampling rate : 48.0 KHz
Bit depth : 16 bits
Compression mode : Lossy
Stream size : 285 MiB (11%)
Title : Оригинал Английский
Language : English

Text
ID : 7
Format : UTF-8
Codec ID : S_TEXT/UTF8
Codec ID/Info : UTF-8 Plain Text
Title : Английские
Language : English


Скриншоты
загрузка...
Правила, инструкции, FAQ!!!
Торрент  Добавлен [29 апр 2014, 13:54] Скачать торрент
Скачать торрент
[ Размер 13.32 КБ / Просмотров 9 ]

Статус  
 
Размер  2.56 ГБ
Приватный: Нет (DHT включён)
.torrent скачан  0
Как залить торрент? | Как скачать Torrent? | Как смотреть и слушать онлайн?  


     Отправить личное сообщение
   
Страница 1 из 1
Показать сообщения за:  Поле сортировки  
Начать новую тему Ответить на тему

   Похожие торренты   Автор   Ответы   Просмотры   Последнее сообщение 
В этой теме нет новых непрочитанных сообщений. Скачать торрент Проверен Баркер Клайв - Восставший из Ада [Spichkin, 2009, Ужасы, 128 kbps], M4B

в форуме Аудиокниги (AAC, ALAC), Размер: 202.14 МБ, Здоровье: 0%

Anonymous

0
0|0

6
0

28 авг 2016, 19:07

Anonymous Перейти к последнему сообщению

В этой теме нет новых непрочитанных сообщений. Скачать торрент Проверен (Blues) Rick Derringer Free Ride 2002 - 2002, Flac (image + .cue)

в форуме Blues (Texas, Chicago, Modern and Others), Размер: 371.87 МБ, Здоровье: 0%

Anonymous

0
0|0

1
0

16 окт 2016, 15:31

Anonymous Перейти к последнему сообщению

В этой теме нет новых непрочитанных сообщений. Скачать торрент Проверен Поиски улик [01-10 из 10] (2014) WEB-DLRip

в форуме Отечественные сериалы, Размер: 4.35 ГБ, Здоровье: 100%

Anonymous

0
120|6

58
220

13 июн 2014, 16:01

Anonymous Перейти к последнему сообщению

В этой теме нет новых непрочитанных сообщений. Скачать торрент Проверен Строим террасу / Build a Deck with Rick Arnold [2009, DVDRip, ENG]

в форуме Строительство, ремонт и дизайн, Размер: 291.97 МБ, Здоровье: 100%

Anonymous

0
34|1

21
1

24 янв 2016, 09:43

Anonymous Перейти к последнему сообщению

В этой теме нет новых непрочитанных сообщений. Скачать торрент Проверен Строим сарайку / Build a Shed with Rick Arnold [2009, DVDRip, ENG]

в форуме Строительство, ремонт и дизайн, Размер: 562.42 МБ, Здоровье: 100%

Anonymous

0
37|5

11
1

18 янв 2016, 19:43

Anonymous Перейти к последнему сообщению



Сейчас этот форум просматривают: нет зарегистрированных пользователей и гости: 1


Вы не можете начинать темы
Вы не можете отвечать на сообщения
Вы не можете редактировать свои сообщения
Вы не можете удалять свои сообщения
Вы не можете добавлять вложения

Перейти:  

!ВНИМАНИЕ!
 Ресурс не предоставляет электронные версии произведений, а занимается лишь коллекционированием и каталогизацией ссылок, присылаемых и публикуемых на форуме нашими читателями. Если вы являетесь правообладателем какого-либо представленного материала и не желаете чтобы ссылка на него находилась в нашем каталоге, свяжитесь с нами и мы незамедлительно удалим её. Файлы для обмена на трекере предоставлены пользователями сайта, и администрация не несёт ответственности за их содержание. Просьба не заливать файлы, защищенные авторскими правами, а также файлы нелегального содержания!