На всех торрентах на трекере установлена скидка на скачивание в размере 100 процентов(а).
 Возможность скачивания торрента НЕ зависит от ограничений при низком ратио, низком аплоаде, требуемом ратио или требуемом аплоаде.


Начать новую тему Ответить на тему
Статистика раздачи
Размер: 7.55 ГБ | Добавлен: 25 окт 2017, 14:30 | Скачали: 1218
Сидеров: 15  [0 байт/сек]    Личеров: 0  [0 байт/сек]
Пред. тема | След. тема 

Автор
Сообщение

СообщениеДобавлено: 25 окт 2017, 14:32 

Ответить с цитатой 

Зарегистрированные пользователи
Зарегистрированные пользователи

Стаж: 10 месяцев 1 день
Раздал: 0 байт
Скачал: 0 байт
Ратио: Inf.
Торренты: 1
Год выхода: 2013
Страна (студия): США, Appian Way, EMJAG Productions, Red Granite Pictures, Sikelia Productions
Жанр: Драма, комедия, криминал, биография
Продолжительность: 02:59:52
Перевод: Дублированный


Режиссер: Мартин Скорсезе
В ролях: Леонардо ДиКаприо, Джона Хилл, Марго Робби, Мэттью МакКонахи, Кайл Чандлер, Роб Райнер, Джон Фавро, Жан Дюжарден, Ши Уигхэм, Спайк Джонз, Джон Бернтал, Джоанна Ламли, Кристин Милиоти, Кристин Эберсоул, Катарина Кэс, П.Дж. Бирн, Кеннет Чои

Описание: 1987 год. Джордан Белфорт становится брокером в успешном инвестиционном банке. Вскоре банк закрывается после внезапного обвала индекса Доу-Джонса. По совету жены Терезы Джордан устраивается в небольшое заведение, занимающееся мелкими акциями. Его настойчивый стиль общения с клиентами и врождённая харизма быстро даёт свои плоды. Он знакомится с соседом по дому Донни, торговцем, который сразу находит общий язык с Джорданом и решает открыть с ним собственную фирму. В качестве сотрудников они нанимают нескольких друзей Белфорта, его отца Макса и называют компанию «Стрэттон Оукмонт». В свободное от работы время Джордан прожигает жизнь: лавирует от одной вечеринки к другой, вступает в сексуальные отношения с проститутками, употребляет множество наркотических препаратов, в том числе кокаин и кваалюд. Однажды наступает момент, когда быстрым обогащением Белфорта начинает интересоваться агент ФБР.

Качество: BDRip 1080p
Формат: MKV
Видео кодек: H.265
Аудио кодек: AC3
Видео: 1920x800, 23.976 кадр/сек, 5368 Кбит/сек
Аудио: Русская, 640 Кбит/сек, 6 канала(ов), 48,0 КГц

Общее
Уникальный идентификатор : 185517358178301499558018622231000572718 (0x8B9157F1B53ADF6DA0F5BE30F28EE32E)
Полное имя : F:\HEVC-CLUB\The Wolf of Wall Street (2013) BDRip 1080p [HEVC].mkv
Формат : Matroska
Версия формата : Version 4 / Version 2
Размер файла : 7,55 Гбайт
Продолжительность : 2 ч. 59 м.
Общий поток : 6010 Кбит/сек
Название фильма : The.Wolf.of.Wall.Street.2013.1080p.BluRay.DTS.x264-Talian-
Дата кодирования : UTC 2017-10-24 15:33:29
Программа кодирования : mkvmerge v8.9.0 ('Father Daughter') 64bit
Библиотека кодирования : libebml v1.3.3 + libmatroska v1.4.4
Обложка : Yes
Attachments : cover.jpg

Видео
Идентификатор : 1
Формат : HEVC
Формат/Информация : High Efficiency Video Coding
Профиль формата : Main@L4@Main
Идентификатор кодека : V_MPEGH/ISO/HEVC
Продолжительность : 2 ч. 59 м.
Битрейт : 5368 Кбит/сек
Ширина : 1920 пикселей
Высота : 800 пикселей
Соотношение сторон : 2,40:1
Режим частоты кадров : Постоянный
Частота кадров : 23,976 (24000/1001) кадра/сек
Цветовое пространство : YUV
Субдискретизация насыщенности : 4:2:0 (Type 1 / Type 0)
Битовая глубина : 8 бит
Бит/(Пиксели*Кадры) : 0.146
Размер потока : 6,74 Гбайт (89%)
Default : Да
Forced : Нет
Цветовой диапазон : Full
Основные цвета : BT.709
Характеристики трансфера : BT.709
Коэффициенты матрицы : BT.709

Аудио
Идентификатор : 2
Формат : AC-3
Формат/Информация : Audio Coding 3
Параметр Endianness формата : Big
Идентификатор кодека : A_AC3
Продолжительность : 2 ч. 59 м.
Вид битрейта : Постоянный
Битрейт : 640 Кбит/сек
Каналы : 6 каналов
Расположение каналов : Front: L C R, Side: L R, LFE
Частота : 48,0 КГц
Частота кадров : 31,250 кадров/сек (1536 SPF)
Битовая глубина : 16 бит
Метод сжатия : С потерями
Размер потока : 823 Мбайт (11%)
Язык : Russian
ServiceKind/String : Complete Main
Default : Да
Forced : Нет

Меню
00:00:00.000 : en:00:00:00.000
00:07:55.934 : en:00:07:55.934
00:14:17.857 : en:00:14:17.857
00:21:31.415 : en:00:21:31.415
00:32:08.093 : en:00:32:08.093
00:40:14.495 : en:00:40:14.495
00:48:33.577 : en:00:48:33.577
00:55:21.777 : en:00:55:21.777
01:01:56.046 : en:01:01:56.046
01:07:00.475 : en:01:07:00.475
01:11:28.910 : en:01:11:28.910
01:19:49.868 : en:01:19:49.868
01:29:06.883 : en:01:29:06.883
01:37:47.403 : en:01:37:47.403
01:45:11.931 : en:01:45:11.931
01:54:39.998 : en:01:54:39.998
02:03:20.184 : en:02:03:20.184
02:07:28.015 : en:02:07:28.015
02:17:12.850 : en:02:17:12.850
02:25:25.467 : en:02:25:25.467
02:32:08.619 : en:02:32:08.619
02:36:38.723 : en:02:36:38.723
02:44:19.266 : en:02:44:19.266
02:53:04.290 : en:02:53:04.291




Релиз группы:
загрузка...
Правила, инструкции, FAQ!!!
Торрент  Добавлен [25 окт 2017, 14:30] Скачать торрент Магнет ссылка
Скачать торрент
[ Размер 19.25 КБ / Просмотров 138 ]

Статус
Проверен Bionik (25 окт 2017, 17:46)
 
Размер  7.55 ГБ
Приватный: Нет (DHT включён)
.torrent скачан  1218
Как залить торрент? | Как скачать Torrent? | Ошибка в торренте? Качайте магнет  


Профиль     Отправить личное сообщение
   
Страница 1 из 1
Показать сообщения за:  Поле сортировки  
Начать новую тему Ответить на тему

   Похожие торренты   Автор   Ответы   Просмотры   Последнее сообщение 
В этой теме нет новых непрочитанных сообщений. Скачать торрент Волк с Уолл-стрит / The Wolf of Wall Street (2013) BDRip 1080p | P2

в форуме 720p | 1080p, Размер: 14.65 ГБ, Здоровье: 100%

Anonymous

0
1|0

87
0

15 мар 2014, 08:26

Anonymous Перейти к последнему сообщению

В этой теме нет новых непрочитанных сообщений. Скачать торрент Обновлён Волк с Уолл-стрит / The Wolf of Wall Street (2013) BDRip 720p | Лицензия

в форуме 720p | 1080p, Размер: 5.66 ГБ, Здоровье: 100%

Гость

0
89|3

144
94

13 мар 2014, 23:54

Гость Перейти к последнему сообщению

В этой теме нет новых непрочитанных сообщений. Скачать торрент Обновлён Волк с Уолл-Стрит / The Wolf of Wall Street (2013) HDRip | Лицензия

в форуме Драмы, Мелодрамы, Размер: 1.45 ГБ, Здоровье: 100%

Гость

0
1033|17

123
259

13 мар 2014, 23:45

Гость Перейти к последнему сообщению

В этой теме нет новых непрочитанных сообщений. Скачать торрент Проверен Волк с Уолл-стрит / The Wolf of Wall Street (Мартин Скорсезе / Martin Scorsese) [2013, США, драма, комедия, криминал, BDRip, 480p] Dub, DVO + Original + sub (rus, eng)

в форуме Фильмы для iPod, iPhone, iPad, Размер: 2.35 ГБ, Здоровье: 100%

Anonymous

0
32|3

68
2

24 дек 2017, 22:36

Anonymous Перейти к последнему сообщению

В этой теме нет новых непрочитанных сообщений. Скачать торрент Проверен [VIDEO] Волк с Уолл-стрит / The Wolf of Wall Street (Мартин Скорсезе / Martin Scorsese) [2013г, США, драма, комедия, криминал, биография, HDRip][MP4, 640x] Dub

в форуме Видео для смартфонов и КПК, Размер: 1.52 ГБ, Здоровье: 100%

Anonymous

0
65|21

133
1

02 авг 2014, 16:54

Anonymous Перейти к последнему сообщению



Сейчас этот форум просматривают: нет зарегистрированных пользователей и гости: 1


Вы не можете начинать темы
Вы не можете отвечать на сообщения
Вы не можете редактировать свои сообщения
Вы не можете удалять свои сообщения
Вы не можете добавлять вложения

Перейти:  
Ресурс не предоставляет электронные версии произведений, а занимается лишь коллекционированием и каталогизацией ссылок, присылаемых и публикуемых на форуме нашими читателями. Если вы являетесь правообладателем какого-либо представленного материала и не желаете чтобы ссылка на него находилась в нашем каталоге, свяжитесь с нами и мы незамедлительно удалим её. Файлы для обмена на трекере предоставлены пользователями сайта, и администрация не несёт ответственности за их содержание. Просьба не заливать файлы, защищенные авторскими правами, а также файлы нелегального содержания!
cron