На всех торрентах на трекере установлена скидка на скачивание в размере 100 процентов(а).
 Возможность скачивания торрента НЕ зависит от ограничений при низком ратио, низком аплоаде, требуемом ратио или требуемом аплоаде.


Начать новую тему Ответить на тему
Статистика раздачи
Размер: 926.82 МБ | Добавлен: 01 фев 2014, 19:05 | Скачали: 0
Сидеров: 2  [0 байт/сек]    Личеров: 4  [0 байт/сек]
Пред. тема | След. тема 

Автор
Сообщение

СообщениеДобавлено: 01 фев 2014, 19:05 

Ответить с цитатой 

Воины / Warriors

Страна: Канада, Израиль
Жанр: боевик
Год выпуска: 1994
Продолжительность: 01:36:21

Перевод: Авторский (одноголосый закадровый) Андрей Гаврилов
Cубтитры: нет
Оригинальная аудиодорожка: нет

Режиссер: Шимон Дотан / Shimon Dotan

В ролях: Гэри Бьюзи, Майкл Паре, Уэнди Фулфорд, Катрин МакКензи, Лиз МакРэй, Гриффит Брюэр

Описание: Убийцы-профессионалы — идеальные машины для истребления всего живого. «Бойцы» спецподразделения, которое выполняет самые «грязные» задания военного начальства, живут в особой тюрьме ужесточенного режима.
Командир отряда убийц Вейл совершает побег, чтобы выполнить «свое последнее задание», и его лучший ученик, Колин Нил, отправляется в погоню, чтобы ликвидировать Вейла…

Доп. информация:
Исходный видеоряд с Синемагеддона.
За звуковую дорожку с переводом Андрея Гаврилова благодарим budulai-8.
За видеоряд, синхронизацию звуковой дорожки и работу со звуком огромная благодарность ale_x2008.

Сэмпл: http://sendfile.su/932674

Качество видео: DVDRip
Формат видео: AVI

Видео: 512x384, 25.000 fps, MPEG-4 Visual, 1143 Kbps
Аудио: 48 KHz, AC3, 2 ch, 192 Kbps
MediaInfo
General
Complete name : J:\Готовые рипы 3\Воины.avi
Format : AVI
Format/Info : Audio Video Interleave
File size : 927 MiB
Duration : 1h 36mn
Overall bit rate : 1 345 Kbps
Writing application : VirtualDubMod 1.5.10.3 (build 2550/release)
Writing library : VirtualDubMod build 2550/release

Video
ID : 0
Format : MPEG-4 Visual
Format profile : Advanced Simple@L5
Format settings, BVOP : 1
Format settings, QPel : No
Format settings, GMC : No warppoints
Format settings, Matrix : Custom
Codec ID : XVID
Codec ID/Hint : XviD
Duration : 1h 36mn
Bit rate : 1 143 Kbps
Width : 512 pixels
Height : 384 pixels
Display aspect ratio : 4:3
Frame rate : 25.000 fps
Color space : YUV
Chroma subsampling : 4:2:0
Bit depth : 8 bits
Scan type : Progressive
Compression mode : Lossy
Bits/(Pixel*Frame) : 0.233
Stream size : 788 MiB (85%)
Writing library : XviD 1.2.0.dev47 (UTC 2006-11-01)

Audio
ID : 1
Format : AC-3
Format/Info : Audio Coding 3
Mode extension : CM (complete main)
Format settings, Endianness : Big
Codec ID : 2000
Duration : 1h 36mn
Bit rate mode : Constant
Bit rate : 192 Kbps
Channel(s) : 2 channels
Channel positions : Front: L R
Sampling rate : 48.0 KHz
Bit depth : 16 bits
Compression mode : Lossy
Stream size : 132 MiB (14%)
Alignment : Split accross interleaves
Interleave, duration : 40 ms (1.00 video frame)
Interleave, preload duration : 500 ms
Language : English
Скриншот c названием фильма
Скриншоты
загрузка...
Правила, инструкции, FAQ!!!
Торрент  Добавлен [01 фев 2014, 19:05] Скачать торрент
Скачать торрент
[ Размер 18.63 КБ / Просмотров 8 ]

Статус  
 
Размер  926.82 МБ
Приватный: Нет (DHT включён)
.torrent скачан  0
Как залить торрент? | Как скачать Torrent? | Как смотреть и слушать онлайн?  


     Отправить личное сообщение
   
Страница 1 из 1
Показать сообщения за:  Поле сортировки  
Начать новую тему Ответить на тему

   Похожие торренты   Автор   Ответы   Просмотры   Последнее сообщение 
В этой теме нет новых непрочитанных сообщений. Скачать торрент Проверен Кошмар на улице Вязов 3: Воины сна / A Nightmare on Elm Street 3: Dream Warriors (1987) BDRip 720p

в форуме 720p | 1080p, Размер: 3.15 ГБ, Здоровье: 100%

Anonymous

0
6|0

45
207

17 авг 2014, 08:15

Anonymous Перейти к последнему сообщению

В этой теме нет новых непрочитанных сообщений. Скачать торрент Проверен Земляной Андрей - Воины Сарда [Гинатуллин Рустам (ЛИ), 2013 г., 128, MP3]

в форуме Российская фантастика, фэнтези, мистика, ужасы, фанфики, Размер: 484.85 МБ, Здоровье: 0%

Anonymous

0
0|0

16
0

10 сен 2016, 14:03

Anonymous Перейти к последнему сообщению

В этой теме нет новых непрочитанных сообщений. Скачать торрент Проверен В зоне особого внимания (Андрей Малюков) [1977, СССР, боевик, DVDRip SD (480p)] Original

в форуме Фильмы для iPod, iPhone, iPad, Размер: 1.27 ГБ, Здоровье: 100%

Гость

0
14|5

71
2

11 май 2015, 01:25

Гость Перейти к последнему сообщению

В этой теме нет новых непрочитанных сообщений. Скачать торрент Проверен Бобл Алексей, Левицкий Андрей - Воины зоны (S.T.A.L.K.E.R.) [saturn78, 2010 г., 112, MP3]

в форуме Российская фантастика, фэнтези, мистика, ужасы, фанфики, Размер: 579.11 МБ, Здоровье: 0%

Anonymous

0
0|0

3
0

10 сен 2016, 20:54

Anonymous Перейти к последнему сообщению

В этой теме нет новых непрочитанных сообщений. Скачать торрент Проверен Бобл Алексей, Левицкий Андрей - S.T.A.L.K.E.R.: Воины Зоны [peacemaker, 2010, 128 kbps]

в форуме Российская фантастика, фэнтези, мистика, ужасы, фанфики, Размер: 781.36 МБ, Здоровье: 0%

Anonymous

0
0|0

4
0

10 сен 2016, 16:03

Anonymous Перейти к последнему сообщению



Сейчас этот форум просматривают: нет зарегистрированных пользователей и гости: 2


Вы не можете начинать темы
Вы не можете отвечать на сообщения
Вы не можете редактировать свои сообщения
Вы не можете удалять свои сообщения
Вы не можете добавлять вложения

Перейти:  

!ВНИМАНИЕ!
 Ресурс не предоставляет электронные версии произведений, а занимается лишь коллекционированием и каталогизацией ссылок, присылаемых и публикуемых на форуме нашими читателями. Если вы являетесь правообладателем какого-либо представленного материала и не желаете чтобы ссылка на него находилась в нашем каталоге, свяжитесь с нами и мы незамедлительно удалим её. Файлы для обмена на трекере предоставлены пользователями сайта, и администрация не несёт ответственности за их содержание. Просьба не заливать файлы, защищенные авторскими правами, а также файлы нелегального содержания!