На всех торрентах на трекере установлена скидка на скачивание в размере 100 процентов(а).
 Возможность скачивания торрента НЕ зависит от ограничений при низком ратио, низком аплоаде, требуемом ратио или требуемом аплоаде.


Начать новую тему Ответить на тему
Статистика раздачи
Размер: 744.79 МБ | Добавлен: 26 апр 2014, 20:55 | Скачали: 2
Сидеров: 2  [0 байт/сек]    Личеров: 0  [0 байт/сек]
Пред. тема | След. тема 

Автор
Сообщение

СообщениеДобавлено: 26 апр 2014, 20:55 

Внутри Моей Памяти / The I Inside

«His story began when it all ended»
Страна: США, Великобритания
Жанр: Фэнтези, триллер, детектив
Год выпуска: 2003
Продолжительность: 1:27:18
Перевод: Профессиональный (многоголосый, закадровый)

Cубтитры: Нет
Режиссер: Роланд Зузо Рихтер / Roland Suso Richter
В ролях: Райан Филипп, Сара Полли, Пайпер Перабо, Стивен Ри, Роберт Шон Леонард, Стивен Лэнг, Питер Иган, Стивен Грэм, Рэки Айола, Магдалена Менвилл и др.
Описание: Когда Саймон пробуждается в больнице, он не помнит событий последних двух лет: ни собственной свадьбы, ни автокатастрофы, ни гибели брата, в которой обвиняют его. Но вскоре он обнаруживает, что может вернуться назад в своей памяти! А значит должен попытаться изменить будущее...
Бюджет: $8 800 000
Рейтинг MPAA: R (Лицам до 17 лет обязательно присутствие взрослого!)

Качество видео: DVDRip
Исходник: DVD5
Формат видео: AVI
Видео: 688x288 (2.39:1), 25 fps, XviD MPEG-4 ~1054 kbps avg, 0.21 bit/pixel
Аудио: 48 kHz, MPEG Layer 3, 2 ch, ~128.00 kbps avg
Размер: 744.79 Mb ( 780 969 984 bytes ) - 1/6 DVDMediaInfo
Код:
Код:
General
Complete name                            : C:\Внутри моей памяти.2003.DVD5\VIDEO_TS\vmp.avi
Format                                   : AVI
Format/Info                              : Audio Video Interleave
File size                                : 745 MiB
Duration                                 : 1h 27mn
Overall bit rate                         : 1 193 Kbps
Writing application                      : VirtualDubMod 1.5.10.2 (build 2540/release)
Writing library                          : VirtualDubMod build 2540/release

Video
ID                                       : 0
Format                                   : MPEG-4 Visual
Format profile                           : Advanced Simple@L5
Format settings, BVOP                    : 1
Format settings, QPel                    : No
Format settings, GMC                     : No warppoints
Format settings, Matrix                  : Custom
Codec ID                                 : XVID
Codec ID/Hint                            : XviD
Duration                                 : 1h 27mn
Bit rate                                 : 1 055 Kbps
Width                                    : 688 pixels
Height                                   : 288 pixels
Display aspect ratio                     : 2.40:1
Frame rate                               : 25.000 fps
Color space                              : YUV
Chroma subsampling                       : 4:2:0
Bit depth                                : 8 bits
Scan type                                : Progressive
Compression mode                         : Lossy
Bits/(Pixel*Frame)                       : 0.213
Stream size                              : 659 MiB (88%)
Writing library                          : XviD 64

Audio
ID                                       : 1
Format                                   : MPEG Audio
Format version                           : Version 1
Format profile                           : Layer 3
Mode                                     : Joint stereo
Mode extension                           : MS Stereo
Codec ID                                 : 55
Codec ID/Hint                            : MP3
Duration                                 : 1h 27mn
Bit rate mode                            : Constant
Bit rate                                 : 128 Kbps
Channel(s)                               : 2 channels
Sampling rate                            : 48.0 KHz
Compression mode                         : Lossy
Stream size                              : 79.9 MiB (11%)
Alignment                                : Aligned on interleaves
Interleave, duration                     : 40 ms (1.00 video frame)
Interleave, preload duration             : 504 ms

Скриншоты
загрузка...
Правила, инструкции, FAQ!!!
Торрент  Добавлен [26 апр 2014, 20:55] Скачать торрент
Скачать торрент
[ Размер 29.57 КБ / Просмотров 16 ]

Статус  
 
Размер  744.79 МБ
Приватный: Нет (DHT включён)
.torrent скачан  2
Как залить торрент? | Как скачать Torrent? | Как смотреть и слушать онлайн?  


     Отправить личное сообщение
   
Страница 1 из 1
Показать сообщения за:  Поле сортировки  
Начать новую тему Ответить на тему

   Похожие торренты   Автор   Ответы   Просмотры   Последнее сообщение 
В этой теме нет новых непрочитанных сообщений. Скачать торрент Проверен (Classical) Edition Sviatoslav Richter - Мелодия/ Святослав Рихтер- 2003, APE (image+.cue), lossless

в форуме Классика, Размер: 2.45 ГБ, Здоровье: 100%

Anonymous

0
3|1

15
0

06 окт 2016, 23:47

Anonymous Перейти к последнему сообщению

В этой теме нет новых непрочитанных сообщений. Скачать торрент Проверен [iPhone] Оно / It (Томми Ли Уоллес) [1990 г., ужасы, триллер, фэнтези, комедия, драма, приключения, детектив, DVDRip]

в форуме Фильмы для iPod, iPhone, iPad, Размер: 977.23 МБ, Здоровье: 100%

Гость

0
1|0

55
0

18 май 2015, 10:38

Гость Перейти к последнему сообщению

В этой теме нет новых непрочитанных сообщений. Скачать торрент Проверен Роланд Топор / Roland Topor - Жилец / Le Locataire [1993, txt]

в форуме Зарубежная литература (XX и XXI век), Размер: 280.32 КБ, Здоровье: 100%

Anonymous

0
5|1

0
0

08 сен 2016, 18:30

Anonymous Перейти к последнему сообщению

В этой теме нет новых непрочитанных сообщений. Скачать торрент Проверен [iPhone] Звездные врата\ Звездные врата:Континуум\ Звездные Врата:Ковчег Истины \ Stargate\ Stargate: Continuum\ Stargate: The Ark of Truth (Роланд Эммерих / Roland EmmerichМартин Вуд (Martin Wo) [1994-2008 г., фантастика, боевик, фэнтези, приключени

в форуме Фильмы для iPod, iPhone, iPad, Размер: 1.45 ГБ, Здоровье: 100%

Гость

0
3|1

72
0

12 май 2015, 00:13

Гость Перейти к последнему сообщению

В этой теме нет новых непрочитанных сообщений. Скачать торрент Проверен (Classical) Richter ( Святослав Рихтер ) in Hungary 14 CD BOX SET - 2010, FLAC (tracks), lossless

в форуме Классика, Размер: 3.02 ГБ, Здоровье: 100%

Anonymous

0
5|2

9
0

06 окт 2016, 23:39

Anonymous Перейти к последнему сообщению



Сейчас этот форум просматривают: нет зарегистрированных пользователей и гости: 1


Вы не можете начинать темы
Вы не можете отвечать на сообщения
Вы не можете редактировать свои сообщения
Вы не можете удалять свои сообщения
Вы не можете добавлять вложения

Перейти:  

!ВНИМАНИЕ!
 Ресурс не предоставляет электронные версии произведений, а занимается лишь коллекционированием и каталогизацией ссылок, присылаемых и публикуемых на форуме нашими читателями. Если вы являетесь правообладателем какого-либо представленного материала и не желаете чтобы ссылка на него находилась в нашем каталоге, свяжитесь с нами и мы незамедлительно удалим её. Файлы для обмена на трекере предоставлены пользователями сайта, и администрация не несёт ответственности за их содержание. Просьба не заливать файлы, защищенные авторскими правами, а также файлы нелегального содержания!