На всех торрентах на трекере установлена скидка на скачивание в размере 100 процентов(а).
 Возможность скачивания торрента НЕ зависит от ограничений при низком ратио, низком аплоаде, требуемом ратио или требуемом аплоаде.


Начать новую тему Ответить на тему
Статистика раздачи
Размер: 15.43 ГБ | Добавлен: 17 авг 2015, 18:53 | Скачали: 1
Сидеров: 53  [0 байт/сек]    Личеров: 5  [0 байт/сек]
Пред. тема | След. тема 

Автор
Сообщение

СообщениеДобавлено: 17 авг 2015, 18:53 

Ответить с цитатой 

Производство: США
Жанр: драма, криминал

Режиссер: Джон Дэвид Коулз, Энтони Хемингуэй, Джордж Тиллман
Актеры: Луис Рамос, Адам Хасс, Люси Уолтерс, Винисиус Мачадо, Лесли Лопез, Кэтрин Нардуччи, Шэйн Джонсон, Дж.Р. Рамирез, Омари Хардвик, Лела Лорен и др.

Описание:
Имея немало денег от нелегальной торговли наркотиками, хозяин ночного клуба Джеймс Сент-Патрик , по прозвищу Призрак , планирует легализировать свой капитал. Он хочет занять место в высших слоях нью-йоркской элиты. Безусловно, деньги и власть в ночном городе неразделимые понятия, но нужна ещё определенная респектабельность и репутация, но как правило появляются проблемы на всех фронтах и далеко не все из них можно решить без потерь. Криминальная нить повествования проходит на фоне любовных приключений и интриг ,гламурных дам и шикарных апартаментов , но не надо забывать что все нажитое неправедным путем никогда не приносит пользы. Как говорит классик - "гробы карманов не имеют" .



Релиз от: Pro_Rock_
Продолжительность: ~ 00:55:00 серия
Качество видео: WEB-DL
Перевод: Многоголосый закадровый, профессиональный - Amedia
Вид субтитров: вшитые отключаемые
Язык субтитров: русский (Amedia), английский

Видео: AVC/H.264, 1280x716, ~4000 kbps
Аудио 1 Rus: AC3, 48 kHz, 6 ch, ~384.00 kbps |многоголосый закадровый|
Аудио 2 Eng: AC3, 48 kHz, 6 ch, ~384.00 kbps |оригинал|
Код:
Код:
Общее
Уникальный идентификатор                 : 193741979287601253557308686476155218531 (0x91C159128FE20158B69F1222F7E6EA63)
Полное имя                               : Power.S01.720p.WEB-DL.Rus.Eng.HDCLUB\Power.S01E03.720p.WEB-DL.Rus.Eng.HDCLUB.mkv
Формат                                   : Matroska
Версия формата                           : Version 4 / Version 2
Размер файла                             : 1,92 Гбайт
Продолжительность                        : 56 м.
Общий поток                              : 4857 Кбит/сек
Название фильма                          : Power S01E03 (2014) - This Is Real
Дата кодирования                         : UTC 2014-07-03 17:32:56
Программа кодирования                    : mkvmerge v6.6.0 ('The Edge Of The In Between') built on Dec  1 2013 17:55:00
Библиотека кодирования                   : libebml v1.3.0 + libmatroska v1.4.1
Видео
Идентификатор                            : 1
Формат                                   : AVC
Формат/Информация                        : Advanced Video Codec
Профиль формата                          :
Параметр CABAC формата                   : Нет
Параметр ReFrames формата                : 2 кадра
Параметр GOP формата                     : N=1
Идентификатор кодека                     : V_MPEG4/ISO/AVC
Продолжительность                        : 56 м.
Битрейт                                  : 3992 Кбит/сек
Ширина                                   : 1280 пикселей
Высота                                   : 716 пикселей
Соотношение сторон                       : 16:9
Режим частоты кадров                     : Постоянный
Частота кадров                           : 23,976 кадра/сек
Цветовое пространство                    : YUV
Субдискретизация насыщенности            : 4:2:0
Битовая глубина                          : 8 бит
Тип развёртки                            : Прогрессивная
Бит/(Пиксели*Кадры)                      : 0.182
Размер потока                            : 1,57 Гбайт (82%)
Заголовок                                : Release for HDCLUB
Язык                                     : English
Default                                  : Да
Forced                                   : Нет
Основные цвета                           : BT.709
Характеристики трансфера                 : BT.709
Коэффициенты матрицы                     : BT.709
Аудио #1
Идентификатор                            : 2
Формат                                   : AC-3
Формат/Информация                        : Audio Coding 3
Расширение режима                        : CM (complete main)
Параметр Endianness формата              : Big
Идентификатор кодека                     : A_AC3
Продолжительность                        : 56 м.
Вид битрейта                             : Постоянный
Битрейт                                  : 384 Кбит/сек
Каналы                                   : 6 каналов
Расположение каналов                     : Front: L C R, Side: L R, LFE
Частота                                  : 48,0 КГц
Битовая глубина                          : 16 бит
Метод сжатия                             : С потерями
Размер потока                            : 155 Мбайт (8%)
Заголовок                                : DD 5.1 @ 384 kbps - Amedia
Язык                                     : Russian
Default                                  : Да
Forced                                   : Нет
Аудио #2
Идентификатор                            : 3
Формат                                   : AC-3
Формат/Информация                        : Audio Coding 3
Расширение режима                        : CM (complete main)
Параметр Endianness формата              : Big
Идентификатор кодека                     : A_AC3
Продолжительность                        : 56 м.
Вид битрейта                             : Постоянный
Битрейт                                  : 384 Кбит/сек
Каналы                                   : 6 каналов
Расположение каналов                     : Front: L C R, Side: L R, LFE
Частота                                  : 48,0 КГц
Битовая глубина                          : 16 бит
Метод сжатия                             : С потерями
Размер потока                            : 155 Мбайт (8%)
Заголовок                                : DD 5.1 @ 384 kbps - Original
Язык                                     : English
Default                                  : Нет
Forced                                   : Нет
Текст #1
Идентификатор                            : 4
Формат                                   : UTF-8
Идентификатор кодека                     : S_TEXT/UTF8
Идентификатор кодека/Информация          : UTF-8 Plain Text
Заголовок                                : SRT @ Amedia
Язык                                     : Russian
Default                                  : Нет
Forced                                   : Нет
Текст #2
Идентификатор                            : 5
Формат                                   : UTF-8
Идентификатор кодека                     : S_TEXT/UTF8
Идентификатор кодека/Информация          : UTF-8 Plain Text
Заголовок                                : SRT @ Original SDH
Язык                                     : English
Default                                  : Нет
Forced                                   : Нет
01. Not Exactly... / Не совсем ...
02. Whoever He Is / Кем бы он ни был
03. This Is Real / Это реально
04. Who Are You? / Кто ты?
05. I Gotta Go / Я должен идти
06. Who You With? / Ты с кем?
07. Loyalty / Лояльность
08. Best Laid Plans

Скриншоты:

загрузка...
Правила, инструкции, FAQ!!!
Торрент  Добавлен [17 авг 2015, 18:53] Скачать торрент
Скачать торрент
[ Размер 40.13 КБ / Просмотров 8 ]

Статус
Проверен 
 
Размер  15.43 ГБ
Приватный: Нет (DHT включён)
.torrent скачан  1
Как залить торрент? | Как скачать Torrent? | Как смотреть и слушать онлайн?  


     Отправить личное сообщение
   
Страница 1 из 1
Показать сообщения за:  Поле сортировки  
Начать новую тему Ответить на тему

   Похожие торренты   Автор   Ответы   Просмотры   Последнее сообщение 
В этой теме нет новых непрочитанных сообщений. Скачать торрент Проверен Власть в ночном городе / Power [S02] (2015) HDTVRip 720p | Amedia

в форуме Зарубежные сериалы, Размер: 11.72 ГБ, Здоровье: 33%

Гость

0
57|171

180
9

17 авг 2015, 18:59

Гость Перейти к последнему сообщению

В этой теме нет новых непрочитанных сообщений. Скачать торрент Проверен Селфи / Selfie (2014) HDTV [H.264/720p-LQ] (сезон 1, серии 1-13 из 13) Gladiolus

в форуме Зарубежные сериалы, Размер: 8.88 ГБ, Здоровье: 0%

Гость

0
0|0

145
0

03 янв 2015, 22:21

Гость Перейти к последнему сообщению

В этой теме нет новых непрочитанных сообщений. Скачать торрент Проверен Покойо / Pocoyo (2005-2009) SATRip (1 сезон: 1-52 серии, 2 сезон: 1- 52 серии из 104) [Обновляемая]

в форуме Развивающее Видео для детей, Размер: 9.33 ГБ, Здоровье: 100%

Гость

0
224|169

726
17

01 дек 2015, 00:15

Гость Перейти к последнему сообщению

В этой теме нет новых непрочитанных сообщений. Скачать торрент Проверен Учимся вместе: Руби и Йо-йо / Rubi (2011) WEB-DLRip [H.264/720p-LQ] (Сезон 01-03, Серии 01-169 из 169)

в форуме Развивающее Видео для детей, Размер: 15.32 ГБ, Здоровье: 100%

Гость

0
4|1

61
0

01 дек 2015, 00:10

Гость Перейти к последнему сообщению

В этой теме нет новых непрочитанных сообщений. Скачать торрент Проверен [SERIAL] Сотня / The 100 / Сезон 1 / Серии 1-13 из 13 (Дин Уайт, Джон Беринг, Милан Чейлов) [2014, Фантастика, приключения, WEB-DLRip] [MP4, 640x] (LostFilm)

в форуме Видео для смартфонов и КПК, Размер: 3.11 ГБ, Здоровье: 100%

Anonymous

0
53|18

67
0

02 авг 2014, 17:04

Anonymous Перейти к последнему сообщению



Сейчас этот форум просматривают: нет зарегистрированных пользователей и гости: 0


Вы не можете начинать темы
Вы не можете отвечать на сообщения
Вы не можете редактировать свои сообщения
Вы не можете удалять свои сообщения
Вы не можете добавлять вложения

Перейти:  

!ВНИМАНИЕ!
 Ресурс не предоставляет электронные версии произведений, а занимается лишь коллекционированием и каталогизацией ссылок, присылаемых и публикуемых на форуме нашими читателями. Если вы являетесь правообладателем какого-либо представленного материала и не желаете чтобы ссылка на него находилась в нашем каталоге, свяжитесь с нами и мы незамедлительно удалим её. Файлы для обмена на трекере предоставлены пользователями сайта, и администрация не несёт ответственности за их содержание. Просьба не заливать файлы, защищенные авторскими правами, а также файлы нелегального содержания!