На всех торрентах на трекере установлена скидка на скачивание в размере 100 процентов(а).
 Возможность скачивания торрента НЕ зависит от ограничений при низком ратио, низком аплоаде, требуемом ратио или требуемом аплоаде.


Начать новую тему Ответить на тему
Статистика раздачи
Размер: 2.19 ГБ | Добавлен: 12 фев 2014, 08:17 | Скачали: 0
Сидеров: 11  [0 байт/сек]    Личеров: 4  [0 байт/сек]
Пред. тема | След. тема 

Автор
Сообщение

СообщениеДобавлено: 12 фев 2014, 08:17 

Ответить с цитатой 

Вызов / Defiance

Страна: США
Жанр: Боевик, триллер, драма, военный, история
Год выпуска: 2008
Продолжительность: 02:16:48

Перевод: Профессиональный (многоголосый закадровый)
Cубтитры: нет
Режиссер: Эдвард Цвик / Edward Zwick

В ролях: Дэниэл Крэйг, Лив Шрайбер, Джейми Белл, Алекса Давалос, Аллан Кордунер, Марк Фойерстин, Томас Арана, Джоди Мей, Кейт Фахи, Иддо Голдберг

Описание: Трое братьев-евреев сбегают из оккупированной Польши в белорусские леса, где присоединяются к антифашистской борьбе и объявляют войну оккупантам.

Сэмпл: http://multi-up.com/592303

Качество видео: HDRip (Исходник BDRip 1080p)
Формат видео: AVI

Видео: 720x384 (1.88:1), 23.976 fps, XviD build 50, 1842 kbps avg, 0.28 bit/pixel
Аудио: 48 kHz, AC3 Dolby Digital, 3/2 (L,C,R,l,r) + LFE ch, 448 kbps
MediaInfo
Complete name : Вызов.avi
Format : AVI
Format/Info : Audio Video Interleave
Format profile : OpenDML
File size : 2.19 GiB
Duration : 2h 16mn
Overall bit rate : 2 291 Kbps
Writing application : VirtualDubModRus 1.5.10.2 (build 2542/release)
Writing library : VirtualDubMod build 2542/release

Video
ID : 0
Format : MPEG-4 Visual
Format profile : Advanced Simple@L5
Format settings, BVOP : Yes
Format settings, QPel : No
Format settings, GMC : No warppoints
Format settings, Matrix : Default (MPEG)
Codec ID : XVID
Codec ID/Hint : XviD
Duration : 2h 16mn
Bit rate : 1 837 Kbps
Width : 720 pixels
Height : 384 pixels
Display aspect ratio : 1.875
Frame rate : 23.976 fps
Resolution : 8 bits
Colorimetry : 4:2:0
Scan type : Progressive
Bits/(Pixel*Frame) : 0.277
Stream size : 1.76 GiB (80%)
Writing library : XviD 1.2.1 (UTC 2008-12-04)

Audio
ID : 1
Format : AC-3
Format/Info : Audio Coding 3
Codec ID : 2000
Duration : 2h 14mn
Bit rate mode : Constant
Bit rate : 448 Kbps
Channel(s) : 6 channels
Channel positions : Front: L C R, Surround: L R, LFE
Sampling rate : 48.0 KHz
Stream size : 432 MiB (19%)
Alignment : Split accross interleaves
Interleave, duration : 42 ms (1.02 video frame)
Interleave, preload duration : 500 ms
Скриншот c названием фильма
Скриншоты
загрузка...
Правила, инструкции, FAQ!!!
Торрент  Добавлен [12 фев 2014, 08:17] Скачать торрент
Скачать торрент
[ Размер 11.49 КБ / Просмотров 6 ]

Статус  
 
Размер  2.19 ГБ
Приватный: Нет (DHT включён)
.torrent скачан  0
Как залить торрент? | Как скачать Torrent? | Как смотреть и слушать онлайн?  


     Отправить личное сообщение
   
Страница 1 из 1
Показать сообщения за:  Поле сортировки  
Начать новую тему Ответить на тему

   Похожие торренты   Автор   Ответы   Просмотры   Последнее сообщение 
В этой теме нет новых непрочитанных сообщений. Скачать торрент Проверен [iPad] Операция Валькирия / Valkyrie (Брайан Сингер / Bryan Singer) [2008 г., Триллер, драма, военный, история, BDRip 720p]

в форуме Фильмы для iPod, iPhone, iPad, Размер: 2.64 ГБ, Здоровье: 100%

Гость

0
14|5

35
0

11 май 2015, 01:29

Гость Перейти к последнему сообщению

В этой теме нет новых непрочитанных сообщений. Скачать торрент Проверен Звезда (Николай Лебедев) [2002, Россия, боевик, драма, приключения, военный, история, Blu-ray disc 1080p] Sub eng

в форуме Наше кино (HD Video), Размер: 19.61 ГБ, Здоровье: 100%

Гость

0
11|4

66
0

12 апр 2015, 10:56

Гость Перейти к последнему сообщению

В этой теме нет новых непрочитанных сообщений. Скачать торрент Проверен Звезда (Николай Лебедев) [2002, Россия, боевик, драма, приключения, военный, история., BDRip 720p] Sub eng

в форуме Наше кино (HD Video), Размер: 4.37 ГБ, Здоровье: 91%

Anonymous

0
11|12

56
0

12 апр 2015, 11:06

Anonymous Перейти к последнему сообщению

В этой теме нет новых непрочитанных сообщений. Скачать торрент Проверен Александр / Alexander (Оливер Стоун) [2004 г., боевик, мелодрама, драма, приключения, военный, биография, история, DVDRip]

в форуме Фильмы для iPod, iPhone, iPad, Размер: 667.45 МБ, Здоровье: 100%

Гость

0
1|0

93
0

14 май 2015, 00:21

Гость Перейти к последнему сообщению

В этой теме нет новых непрочитанных сообщений. Скачать торрент Проверен [iPad] В тумане (Сергей Лозница) [2012, Беларусь, драма, военный, история, HDRip, SD (576p)] Original

в форуме Фильмы для iPod, iPhone, iPad, Размер: 2.08 ГБ, Здоровье: 100%

Гость

0
7|2

72
0

14 май 2015, 00:02

Гость Перейти к последнему сообщению



Сейчас этот форум просматривают: нет зарегистрированных пользователей и гости: 1


Вы не можете начинать темы
Вы не можете отвечать на сообщения
Вы не можете редактировать свои сообщения
Вы не можете удалять свои сообщения
Вы не можете добавлять вложения

Перейти:  

!ВНИМАНИЕ!
 Ресурс не предоставляет электронные версии произведений, а занимается лишь коллекционированием и каталогизацией ссылок, присылаемых и публикуемых на форуме нашими читателями. Если вы являетесь правообладателем какого-либо представленного материала и не желаете чтобы ссылка на него находилась в нашем каталоге, свяжитесь с нами и мы незамедлительно удалим её. Файлы для обмена на трекере предоставлены пользователями сайта, и администрация не несёт ответственности за их содержание. Просьба не заливать файлы, защищенные авторскими правами, а также файлы нелегального содержания!