На всех торрентах на трекере установлена скидка на скачивание в размере 100 процентов(а).
 Возможность скачивания торрента НЕ зависит от ограничений при низком ратио, низком аплоаде, требуемом ратио или требуемом аплоаде.


Начать новую тему Ответить на тему
Статистика раздачи
Размер: 5.47 ГБ | Добавлен: 21 окт 2014, 20:57 | Скачали: 1
Сидеров: 83  [0 байт/сек]    Личеров: 28  [0 байт/сек]
Пред. тема | След. тема 

Автор
Сообщение

СообщениеДобавлено: 21 окт 2014, 20:57 

Ответить с цитатой 

Визит к Минотавру (5 серий)

Жанр: детектив, экранизация
Год выпуска: 1987
Продолжительность: 01:14:24 + 01:06:58 + 01:15:07 + 01:08:27 + 01:10:58

Режиссёр: Эльдор Уразбаев

В ролях: Сергей Шакуров, Ростислав Плятт, Анна Каменкова, Владимир Самойлов, Лаймонас Норейка (озвучание - Владимир Сафронов), Валентин Гафт, Александр Филиппенко, Михаил Пуговкин, Лев Борисов, Григорий Лямпе, Саша Порошков, Наталья Аринбасарова, Борис Сморчков, Нина Шацкая, Евгений Супонев, Марина Левтова, Юрий Катин-Ярцев, Валентин Никулин, Саша Делибаш, Валентин Смирнитский, Нина Меньшикова, Юрий Мороз, Андрей Дубовский (озвучание - Сергей Малишевский), Леонид Белозорович, Борис Левинсон, Александр Рахленко (озвучание - Сергей Быстрицкий), Олег Хабалов (озвучание - Владимир Ферапонтов), Манефа Соболевская, Вадим Захарченко

Описание: Следователю прокуратуры Станиславу Тихонову поручают расследовать кражу в квартире прославленного музыканта — скрипача, народного артиста СССР Льва Осиповича Полякова. Из квартиры похищено много ценных вещей, и преступление выглядело бы обычной кражей со взломом, если бы не пропажа скрипки «Санта Мария» - одной из лучших работ Антонио Страдивари, созданной в 1671 году, в период творческого расцвета скрипичного мастера; бесценного, уникального инструмента, без которого Поляков не может выступать. Подозрение в краже скрипки падает на старинного друга-недруга Полякова - Павла Петровича Иконникова...

Доп. информация: Пятисерийный остросюжетный детектив по одноименному роману Аркадия и Георгия Вайнеров.
Сценарий: Аркадий Вайнер, Георгий Вайнер
Оператор: Александр Рыбин
Художник: Сергей Серебреников
Композитор: Эдуард Артемьев
Ограничения на просмотр: для любой зрительской аудитории

Прототипом скрипача Полякова послужил "король скрипачей, первая скрипка мира" (как называла его западная пресса) Давид Ойстрах. В основу книги и фильма был положен криминальный эпизод, связанный с кражей в его квартире. Однако, ту самую скрипку Страдивари, переданную в дар великому скрипачу бельгийской королевой, украли... двадцать пять лет спустя спустя после описанных событий.
В исходном DVD 6-канальный звук (как во многих изделиях "Twister") - "дутый": канал LFE пустой, каналы FL, SL и FR, SR - идентичны (в тыловых каналах просто понижена громкость), центральный получен путем сложения фронтальных, диалоги отчетливо слышны во всех пяти каналах.
Для данного рипа аудиодорожки в каждой серии перекодированы в формат АС3 2.0 при помощи программ PgcDemux, BeSweet, Adobe Audition, Sonic Foundry Soft Encode.
В данной раздаче файл каждой серии имеет размер 1.09 GB, что обусловлено необходимостью: размер 1.37 GB во всех сериях, кроме первой, не проходит по битрейту, при 750 MB сильно страдает качество видео, а оно в исходнике и так весьма посредственное.
Качество видео: DVDRip
Формат видео: AVI

Видео:
1 серия - 688x512 (1.34:1), 25 fps, XviD 1.2.1, 1875 kbps avg, 0.21 bit/pixel
2 серия - 688x512 (1.34:1), 25 fps, XviD 1.2.1, 2105 kbps avg, 0.24 bit/pixel
3 серия - 688x512 (1.34:1), 25 fps, XviD 1.2.1, 1850 kbps avg, 0.21 bit/pixel
4 серия - 688x512 (1.34:1), 25 fps, XviD 1.2.1, 2055 kbps avg, 0.23 bit/pixel
5 серия - 688x512 (1.34:1), 25 fps, XviD 1.2.1, 1975 kbps avg, 0.22 bit/pixel
Аудио: 48 kHz, AC3 Dolby Digital, 2/0 (L,R) ch, 224.00 kbps avg
Полное имя : \Vizit k minotavru\Part 1.avi
Формат : AVI
Формат/Информация : Audio Video Interleave
Размер файла : 1,10 Гбайт
Продолжительность : 1 ч. 14 м.
Общий поток : 2109 Кбит/сек
Программа кодирования : VirtualDubMod 1.5.10.3 (build 2550/release)
Библиотека кодирования : VirtualDubMod build 2550/release

Видео
Идентификатор : 0
Формат : MPEG-4 Visual
Профиль формата : Advanced Simple@L5
Параметр BVOP формата : 2
Параметр QPel формата : Нет
Параметр GMC формата : Без точки перехода
Параметр матрицы формата : Выборочная
Идентификатор кодека : XVID
Идентификатор кодека/Подсказка : XviD
Продолжительность : 1 ч. 14 м.
Битрейт : 1875 Кбит/сек
Ширина : 688 пикселей
Высота : 512 пикселей
Соотношение сторон : 4:3
Частота кадров : 25,000 кадров/сек
Цветовое пространство : YUV
Субдискретизация насыщенности : 4:2:0
Битовая глубина : 8 бит
Тип развёртки : Прогрессивная
Метод сжатия : С потерями
Бит/(Пиксели*Кадры) : 0.213
Размер потока : 998 Мбайт (89%)
Библиотека кодирования : XviD 1.2.1 (UTC 2008-12-04)

Аудио
Идентификатор : 1
Формат : AC-3
Формат/Информация : Audio Coding 3
Расширение режима : CM (complete main)
Параметр Endianness формата : Big
Идентификатор кодека : 2000
Продолжительность : 1 ч. 14 м.
Вид битрейта : Постоянный
Битрейт : 224 Кбит/сек
Каналы : 2 канала
Расположение каналов : Front: L R
Частота : 48,0 КГц
Битовая глубина : 16 бит
Метод сжатия : С потерями
Размер потока : 119 Мбайт (11%)
Выравнивание : Разделение по промежуткам
Продолжительность промежутка : 40 мс. (1,00 видеокадр)
Время предзагрузки промежутка : 500 мс.

Полное имя : \Vizit k minotavru\Part 2.avi
Формат : AVI
Формат/Информация : Audio Video Interleave
Размер файла : 1,09 Гбайт
Продолжительность : 1 ч. 6 м.
Общий поток : 2339 Кбит/сек
Программа кодирования : VirtualDubMod 1.5.10.3 (build 2550/release)
Библиотека кодирования : VirtualDubMod build 2550/release

Видео
Идентификатор : 0
Формат : MPEG-4 Visual
Профиль формата : Advanced Simple@L5
Параметр BVOP формата : 2
Параметр QPel формата : Нет
Параметр GMC формата : Без точки перехода
Параметр матрицы формата : Выборочная
Идентификатор кодека : XVID
Идентификатор кодека/Подсказка : XviD
Продолжительность : 1 ч. 6 м.
Битрейт : 2105 Кбит/сек
Ширина : 688 пикселей
Высота : 512 пикселей
Соотношение сторон : 4:3
Частота кадров : 25,000 кадров/сек
Цветовое пространство : YUV
Субдискретизация насыщенности : 4:2:0
Битовая глубина : 8 бит
Тип развёртки : Прогрессивная
Метод сжатия : С потерями
Бит/(Пиксели*Кадры) : 0.239
Размер потока : 1008 Мбайт (90%)
Библиотека кодирования : XviD 1.2.1 (UTC 2008-12-04)

Аудио
Идентификатор : 1
Формат : AC-3
Формат/Информация : Audio Coding 3
Расширение режима : CM (complete main)
Параметр Endianness формата : Big
Идентификатор кодека : 2000
Продолжительность : 1 ч. 6 м.
Вид битрейта : Постоянный
Битрейт : 224 Кбит/сек
Каналы : 2 канала
Расположение каналов : Front: L R
Частота : 48,0 КГц
Битовая глубина : 16 бит
Метод сжатия : С потерями
Размер потока : 107 Мбайт (10%)
Выравнивание : Разделение по промежуткам
Продолжительность промежутка : 40 мс. (1,00 видеокадр)
Время предзагрузки промежутка : 500 мс.

Полное имя : \Vizit k minotavru\Part 3.avi
Формат : AVI
Формат/Информация : Audio Video Interleave
Размер файла : 1,09 Гбайт
Продолжительность : 1 ч. 15 м.
Общий поток : 2084 Кбит/сек
Программа кодирования : VirtualDubMod 1.5.10.3 (build 2550/release)
Библиотека кодирования : VirtualDubMod build 2550/release

Видео
Идентификатор : 0
Формат : MPEG-4 Visual
Профиль формата : Advanced Simple@L5
Параметр BVOP формата : 2
Параметр QPel формата : Нет
Параметр GMC формата : Без точки перехода
Параметр матрицы формата : Выборочная
Идентификатор кодека : XVID
Идентификатор кодека/Подсказка : XviD
Продолжительность : 1 ч. 15 м.
Битрейт : 1850 Кбит/сек
Ширина : 688 пикселей
Высота : 512 пикселей
Соотношение сторон : 4:3
Частота кадров : 25,000 кадров/сек
Цветовое пространство : YUV
Субдискретизация насыщенности : 4:2:0
Битовая глубина : 8 бит
Тип развёртки : Прогрессивная
Метод сжатия : С потерями
Бит/(Пиксели*Кадры) : 0.210
Размер потока : 994 Мбайт (89%)
Библиотека кодирования : XviD 1.2.1 (UTC 2008-12-04)

Аудио
Идентификатор : 1
Формат : AC-3
Формат/Информация : Audio Coding 3
Расширение режима : CM (complete main)
Параметр Endianness формата : Big
Идентификатор кодека : 2000
Продолжительность : 1 ч. 15 м.
Вид битрейта : Постоянный
Битрейт : 224 Кбит/сек
Каналы : 2 канала
Расположение каналов : Front: L R
Частота : 48,0 КГц
Битовая глубина : 16 бит
Метод сжатия : С потерями
Размер потока : 120 Мбайт (11%)
Выравнивание : Разделение по промежуткам
Продолжительность промежутка : 40 мс. (1,00 видеокадр)
Время предзагрузки промежутка : 500 мс.

Полное имя : F:\Vizit k minotavru\Part 4.avi
Формат : AVI
Формат/Информация : Audio Video Interleave
Размер файла : 1,09 Гбайт
Продолжительность : 1 ч. 8 м.
Общий поток : 2289 Кбит/сек
Программа кодирования : VirtualDubMod 1.5.10.3 (build 2550/release)
Библиотека кодирования : VirtualDubMod build 2550/release

Видео
Идентификатор : 0
Формат : MPEG-4 Visual
Профиль формата : Advanced Simple@L5
Параметр BVOP формата : 2
Параметр QPel формата : Нет
Параметр GMC формата : Без точки перехода
Параметр матрицы формата : Выборочная
Режим смешивания : Сжатый битовый поток
Идентификатор кодека : XVID
Идентификатор кодека/Подсказка : XviD
Продолжительность : 1 ч. 8 м.
Битрейт : 2055 Кбит/сек
Ширина : 688 пикселей
Высота : 512 пикселей
Соотношение сторон : 4:3
Частота кадров : 25,000 кадров/сек
Цветовое пространство : YUV
Субдискретизация насыщенности : 4:2:0
Битовая глубина : 8 бит
Тип развёртки : Прогрессивная
Метод сжатия : С потерями
Бит/(Пиксели*Кадры) : 0.233
Размер потока : 1006 Мбайт (90%)
Библиотека кодирования : XviD 1.2.1 (UTC 2008-12-04)

Аудио
Идентификатор : 1
Формат : AC-3
Формат/Информация : Audio Coding 3
Расширение режима : CM (complete main)
Параметр Endianness формата : Big
Идентификатор кодека : 2000
Продолжительность : 1 ч. 8 м.
Вид битрейта : Постоянный
Битрейт : 224 Кбит/сек
Каналы : 2 канала
Расположение каналов : Front: L R
Частота : 48,0 КГц
Битовая глубина : 16 бит
Метод сжатия : С потерями
Размер потока : 110 Мбайт (10%)
Выравнивание : Разделение по промежуткам
Продолжительность промежутка : 40 мс. (1,00 видеокадр)
Время предзагрузки промежутка : 500 мс.

Полное имя : \Vizit k minotavru\Part 5.avi
Формат : AVI
Формат/Информация : Audio Video Interleave
Размер файла : 1,10 Гбайт
Продолжительность : 1 ч. 10 м.
Общий поток : 2209 Кбит/сек
Программа кодирования : VirtualDubMod 1.5.10.3 (build 2550/release)
Библиотека кодирования : VirtualDubMod build 2550/release

Видео
Идентификатор : 0
Формат : MPEG-4 Visual
Профиль формата : Advanced Simple@L5
Параметр BVOP формата : 2
Параметр QPel формата : Нет
Параметр GMC формата : Без точки перехода
Параметр матрицы формата : Выборочная
Режим смешивания : Сжатый битовый поток
Идентификатор кодека : XVID
Идентификатор кодека/Подсказка : XviD
Продолжительность : 1 ч. 10 м.
Битрейт : 1975 Кбит/сек
Ширина : 688 пикселей
Высота : 512 пикселей
Соотношение сторон : 4:3
Частота кадров : 25,000 кадров/сек
Цветовое пространство : YUV
Субдискретизация насыщенности : 4:2:0
Битовая глубина : 8 бит
Тип развёртки : Прогрессивная
Метод сжатия : С потерями
Бит/(Пиксели*Кадры) : 0.224
Размер потока : 1003 Мбайт (89%)
Библиотека кодирования : XviD 1.2.1 (UTC 2008-12-04)

Аудио
Идентификатор : 1
Формат : AC-3
Формат/Информация : Audio Coding 3
Расширение режима : CM (complete main)
Параметр Endianness формата : Big
Идентификатор кодека : 2000
Продолжительность : 1 ч. 10 м.
Вид битрейта : Постоянный
Битрейт : 224 Кбит/сек
Каналы : 2 канала
Расположение каналов : Front: L R
Частота : 48,0 КГц
Битовая глубина : 16 бит
Метод сжатия : С потерями
Размер потока : 114 Мбайт (10%)
Выравнивание : Разделение по промежуткам
Продолжительность промежутка : 40 мс. (1,00 видеокадр)
Время предзагрузки промежутка : 500 мс.
загрузка...
Правила, инструкции, FAQ!!!
Торрент  Добавлен [21 окт 2014, 20:57] Скачать торрент Магнет ссылка
Скачать торрент
[ Размер 28.03 КБ / Просмотров 17 ]

Статус
Проверен 
 
Размер  5.47 ГБ
Приватный: Нет (DHT включён)
.torrent скачан  1
Как залить торрент? | Как скачать Torrent? | Ошибка в торренте? Качайте магнет  


     Отправить личное сообщение
   
Страница 1 из 1
Показать сообщения за:  Поле сортировки  
Начать новую тему Ответить на тему

   Похожие торренты   Автор   Ответы   Просмотры   Последнее сообщение 
В этой теме нет новых непрочитанных сообщений. Скачать торрент Проверен Визит к Минотавру (Эльдор Уразбаев) [1987, Криминал, детектив, приключения, DVDRip]

в форуме Кино СССР, Размер: 2.45 ГБ, Здоровье: 100%

Anonymous

0
78|20

48
1

21 окт 2014, 20:57

Anonymous Перейти к последнему сообщению

В этой теме нет новых непрочитанных сообщений. Скачать торрент Проверен Визит к Минотавру (Эльдор Уразбаев) [1987, криминальный детектив, SATRip-AVC]

в форуме Кино СССР, Размер: 6.4 ГБ, Здоровье: 100%

Anonymous

0
59|21

99
3

21 окт 2014, 20:56

Anonymous Перейти к последнему сообщению

В этой теме нет новых непрочитанных сообщений. Скачать торрент Проверен Вайнеры Аркадий и Георгий - Визит к минотавру [Козий Николай, 2012 г., 128 kbps, 44 kHz, Mono, MP3]

в форуме Детектив и Боевики, Размер: 819.42 МБ, Здоровье: 100%

Anonymous

0
34|6

74
1

20 ноя 2016, 17:35

Anonymous Перейти к последнему сообщению

В этой теме нет новых непрочитанных сообщений. Скачать торрент Проверен Вайнер Аркадий, Вайнер Георгий - Визит к Минотавру [Лебедева Валерия, 2013, 96 kbps, MP3]

в форуме Детектив и Боевики, Размер: 630.49 МБ, Здоровье: 100%

Anonymous

0
3|1

68
0

20 ноя 2016, 17:17

Anonymous Перейти к последнему сообщению

В этой теме нет новых непрочитанных сообщений. Скачать торрент Проверен Вайнер А., Вайнер Г. - Визит к минотавру [2000, DjVu, RUS]

в форуме Детективы и Боевики, Размер: 6.98 МБ, Здоровье: 100%

Anonymous

0
11|4

39
1

08 сен 2016, 21:43

Anonymous Перейти к последнему сообщению



Сейчас этот форум просматривают: нет зарегистрированных пользователей и гости: 1


Вы не можете начинать темы
Вы не можете отвечать на сообщения
Вы не можете редактировать свои сообщения
Вы не можете удалять свои сообщения
Вы не можете добавлять вложения

Перейти:  
Ресурс не предоставляет электронные версии произведений, а занимается лишь коллекционированием и каталогизацией ссылок, присылаемых и публикуемых на форуме нашими читателями. Если вы являетесь правообладателем какого-либо представленного материала и не желаете чтобы ссылка на него находилась в нашем каталоге, свяжитесь с нами и мы незамедлительно удалим её. Файлы для обмена на трекере предоставлены пользователями сайта, и администрация не несёт ответственности за их содержание. Просьба не заливать файлы, защищенные авторскими правами, а также файлы нелегального содержания!
cron