На всех торрентах на трекере установлена скидка на скачивание в размере 100 процентов(а).
 Возможность скачивания торрента НЕ зависит от ограничений при низком ратио, низком аплоаде, требуемом ратио или требуемом аплоаде.


Начать новую тему Ответить на тему
Статистика раздачи
Размер: 896.88 МБ | Добавлен: 30 май 2014, 00:22 | Скачали: 1
Сидеров: 100  [0 байт/сек]    Личеров: 3  [0 байт/сек]
Пред. тема | След. тема 

Автор
Сообщение

СообщениеДобавлено: 30 май 2014, 00:22 

UK - 3 альбома (1978-1979) Official Discography

Год: 1988
Жанр: Progressive Rock
Продолжительность: 02:10:47

Кодек: FLAC (image+.cue)
Битрейт: Lossless

U.K. (1978)
Продолжительность: 00:46:29
Трек лист:
1. In The Dead Of The Night (5:38)
2. By The Light Of Day (4:32)
3. Presto Vivace And Reprise (2:58)
4. Thirty Years (8:09)
5. Alaska (4:45)
6. Time To Kill (4:55)
7. Nevermore (8:09)
8. Mental Medication (7:31)
Код:
Код:
Exact Audio Copy V0.99 prebeta 4 from 23. January 2008

EAC extraction logfile from 25. May 2010, 18:29

UK / UK (EGCD 35)

Used drive  : PIONEER DVD-RW  DVR-105   Adapter: 0  ID: 1

Read mode               : Secure
Utilize accurate stream : Yes
Defeat audio cache      : Yes
Make use of C2 pointers : No

Read offset correction                      : 48
Overread into Lead-In and Lead-Out          : No
Fill up missing offset samples with silence : Yes
Delete leading and trailing silent blocks   : No
Null samples used in CRC calculations       : Yes
Used interface                              : Installed external ASPI interface

Used output format              : User Defined Encoder
Selected bitrate                : 768 kBit/s
Quality                         : High
Add ID3 tag                     : No
Command line compressor         : C:\Program Files\Exact Audio Copy\Flac\flac.exe
Additional command line options : -8 -V -T "ARTIST=%a" -T "TITLE=%t" -T "ALBUM=%g" -T "DATE=%y" -T "TRACKNUMBER=%n" -T "GENRE=%m" -T "COMMENT=%e" %s -o %d

TOC of the extracted CD

     Track |   Start  |  Length  | Start sector | End sector
    ---------------------------------------------------------
        1  |  0:00.62 |  5:34.55 |        62    |    25166
        2  |  5:35.42 |  4:28.23 |     25167    |    45289
        3  | 10:03.65 |  3:05.60 |     45290    |    59224
        4  | 13:09.50 |  8:08.02 |     59225    |    95826
        5  | 21:17.52 |  4:43.23 |     95827    |   117074
        6  | 26:01.00 |  4:53.45 |    117075    |   139094
        7  | 30:54.45 |  8:12.00 |    139095    |   175994
        8  | 39:06.45 |  7:23.10 |    175995    |   209229

Range status and errors

Selected range

     Filename C:\UK . 1978 . UK (EGCD 35)\UK . 1978 . UK (EGCD 35).wav

     Peak level 89.1 %
     Range quality 100.0 %
     Test CRC D8596545
     Copy CRC D8596545
     Copy OK

No errors occurred

AccurateRip summary

Track  1  accurately ripped (confidence 13)  [E8A2452B]
Track  2  accurately ripped (confidence 13)  [05EC7A26]
Track  3  accurately ripped (confidence 13)  [862C1F70]
Track  4  accurately ripped (confidence 13)  [3EFE45CD]
Track  5  accurately ripped (confidence 13)  [853EE1E5]
Track  6  accurately ripped (confidence 13)  [C87D8AA3]
Track  7  accurately ripped (confidence 13)  [8AF6AEF7]
Track  8  accurately ripped (confidence 12)  [A0F25A34]

All tracks accurately ripped

End of status report
Код:
Код:
PERFORMER: auCDtect Task Manager, ver. 1.6.0 RC1 build 1.6.0.1
Copyright (c) 2008-2010 y-soft. All rights reserved
http:/y-soft.org

ANALYZER: auCDtect: CD records authenticity detector, version 0.8.2
Copyright (c) 2004 Oleg Berngardt. All rights reserved.
Copyright (c) 2004 Alexander Djourik. All rights reserved.

FILE: UK . 1978 . UK (EGCD 35).flac
  Size: 297200449 Hash: 6989255E262D0AE84D4C7BD6174D7017 Accuracy: -m0
  Conclusion: CDDA 100%
  Signature: 3759EA380BD9F5496CF0E96E76124B7A7C18F214
#777Продолжительность: 00:42:12
Трек лист:
1. Danger Money (8:12)
2. Rendez-Vous (5:00)
3. The Only Thing She Needs (7:53)
4. Caesar's Palace Blues (4:42)
5. Nothing To Lose (3:57)
6. Carrying No Cross (12:20)
Код:
Код:
Exact Audio Copy V0.99 prebeta 4 from 23. January 2008

EAC extraction logfile from 26. May 2010, 14:27

UK. / Danger Money (EGCD 39)

Used drive  : PIONEER DVD-RW  DVR-105   Adapter: 0  ID: 1

Read mode               : Secure
Utilize accurate stream : Yes
Defeat audio cache      : Yes
Make use of C2 pointers : No

Read offset correction                      : 48
Overread into Lead-In and Lead-Out          : No
Fill up missing offset samples with silence : Yes
Delete leading and trailing silent blocks   : No
Null samples used in CRC calculations       : Yes
Used interface                              : Installed external ASPI interface

Used output format              : User Defined Encoder
Selected bitrate                : 768 kBit/s
Quality                         : High
Add ID3 tag                     : No
Command line compressor         : C:\Program Files\Exact Audio Copy\Flac\flac.exe
Additional command line options : -8 -V -T "ARTIST=%a" -T "TITLE=%t" -T "ALBUM=%g" -T "DATE=%y" -T "TRACKNUMBER=%n" -T "GENRE=%m" -T "COMMENT=%e" %s -o %d

TOC of the extracted CD

     Track |   Start  |  Length  | Start sector | End sector
    ---------------------------------------------------------
        1  |  0:00.50 |  8:14.67 |        50    |    37166
        2  |  8:15.42 |  5:00.03 |     37167    |    59669
        3  | 13:15.45 |  7:54.52 |     59670    |    95271
        4  | 21:10.22 |  4:44.50 |     95272    |   116621
        5  | 25:54.72 |  3:57.58 |    116622    |   134454
        6  | 29:52.55 | 12:20.20 |    134455    |   189974

Range status and errors

Selected range

     Filename C:\UK . 1979 . Danger Money (EGCD 39)\UK . 1979 . Danger Money (EGCD 39).wav

     Peak level 100.0 %
     Range quality 99.9 %
     Test CRC FA267F50
     Copy CRC FA267F50
     Copy OK

No errors occurred

AccurateRip summary

Track  1  accurately ripped (confidence 16)  [60FF5125]
Track  2  accurately ripped (confidence 16)  [B98DCA4A]
Track  3  accurately ripped (confidence 16)  [C3087C46]
Track  4  accurately ripped (confidence 16)  [A14D0135]
Track  5  accurately ripped (confidence 16)  [E707B274]
Track  6  accurately ripped (confidence 15)  [41FA3BA4]

All tracks accurately ripped

End of status report
Код:
Код:
PERFORMER: auCDtect Task Manager, ver. 1.6.0 RC1 build 1.6.0.1
Copyright (c) 2008-2010 y-soft. All rights reserved
http:/y-soft.org

ANALYZER: auCDtect: CD records authenticity detector, version 0.8.2
Copyright (c) 2004 Oleg Berngardt. All rights reserved.
Copyright (c) 2004 Alexander Djourik. All rights reserved.

FILE: UK . 1979 . Danger Money (EGCD 39).flac
  Size: 270636888 Hash: 69573D5643E6DA71B4685E29679409CA Accuracy: -m0
  Conclusion: CDDA 99%
  Signature: 84C1CC64C2AA37AF4A29789DEFDDA098BB74CC2D
#777Продолжительность: 00:42:06
Трек лист:
1. Night After Night (5:21)
2. Rendez-Vous 6:02 (5:17)
3. Nothing To Lose (5:25)
4. As Long As You Want Me Here (5:00)
5. Alaska (4:21)
6. Time To Kill (4:17)
7. Presto Vivace (1:12)
8. In The Dead Of Night (6:22)
9. Caesar's Palace Blues (4:58
Код:
Код:
Exact Audio Copy V0.99 prebeta 5 from 4. May 2009

EAC extraction logfile from 26. August 2010, 21:38

U.K. / Night After Night (EGCD 42)

Used drive  : PIONEER DVD-RW  DVR-105   Adapter: 0  ID: 1

Read mode               : Secure
Utilize accurate stream : Yes
Defeat audio cache      : Yes
Make use of C2 pointers : No

Read offset correction                      : 48
Overread into Lead-In and Lead-Out          : No
Fill up missing offset samples with silence : Yes
Delete leading and trailing silent blocks   : No
Null samples used in CRC calculations       : Yes
Used interface                              : Installed external ASPI interface

Used output format              : User Defined Encoder
Selected bitrate                : 768 kBit/s
Quality                         : High
Add ID3 tag                     : No
Command line compressor         : C:\Program Files\Exact Audio Copy\Flac\flac.exe
Additional command line options : -8 -V %s

TOC of the extracted CD

     Track |   Start  |  Length  | Start sector | End sector
    ---------------------------------------------------------
        1  |  0:00.00 |  5:24.05 |         0    |    24304
        2  |  5:24.05 |  5:15.67 |     24305    |    47996
        3  | 10:39.72 |  5:16.63 |     47997    |    71759
        4  | 15:56.60 |  5:08.70 |     71760    |    94929
        5  | 21:05.55 |  2:25.57 |     94930    |   105861
        6  | 23:31.37 |  6:10.43 |    105862    |   133654
        7  | 29:42.05 |  1:03.02 |    133655    |   138381
        8  | 30:45.07 |  6:12.33 |    138382    |   166314
        9  | 36:57.40 |  5:08.45 |    166315    |   189459

Range status and errors

Selected range

     Filename C:\Olaf der Weisse\U.K. . 1979 . Night After Night (EGCD 42)\U.K. . 1979 . Night After Night (EGCD 42).wav

     Peak level 100.0 %
     Range quality 100.0 %
     Test CRC A238D1E2
     Copy CRC A238D1E2
     Copy OK

No errors occurred

AccurateRip summary

Track  1  cannot be verified as accurate (confidence 7)  [17D27C61], AccurateRip returned [2F736EA5]
Track  2  cannot be verified as accurate (confidence 8)  [3EDA7618], AccurateRip returned [000CB274]
Track  3  cannot be verified as accurate (confidence 7)  [8D42D433], AccurateRip returned [EEBAA06E]
Track  4  cannot be verified as accurate (confidence 8)  [200268A0], AccurateRip returned [5C3A4169]
Track  5  cannot be verified as accurate (confidence 8)  [A723B41A], AccurateRip returned [90C84643]
Track  6  cannot be verified as accurate (confidence 8)  [1CC5695C], AccurateRip returned [41EFAF6E]
Track  7  cannot be verified as accurate (confidence 7)  [B2F9687D], AccurateRip returned [23348A46]
Track  8  cannot be verified as accurate (confidence 8)  [D1B0B345], AccurateRip returned [70E57772]
Track  9  cannot be verified as accurate (confidence 8)  [34DA9FB7], AccurateRip returned [FDCE1CC6]

No tracks could be verified as accurate
You may have a different pressing from the one(s) in the database

End of status report
Код:
Код:
PERFORMER: auCDtect Task Manager, ver. 1.6.0 RC1 build 1.6.0.1
Copyright (c) 2008-2010 y-soft. All rights reserved
http:/y-soft.org

ANALYZER: auCDtect: CD records authenticity detector, version 0.8.2
Copyright (c) 2004 Oleg Berngardt. All rights reserved.
Copyright (c) 2004 Alexander Djourik. All rights reserved.

FILE: U.K. . 1979 . Night After Night (EGCD 42).flac
  Size: 293696760 Hash: 30DCCF037E911B94E2419E6724DEE132 Accuracy: -m0
  Conclusion: CDDA 100%
  Signature: 55CDBDFE17B093DF60C2F86F5DD176C8F22C0293
Группа "UK" образовалась в Лондоне в 1977 году.
Основал ее молодой музыкант с классическим музыкальным образованием Эдди Джобсон (клавишные, скрипка, экс-"Roxy music"). Он сплотил вокруг себя чрезвычайно известных арт-роковых исполнителей, таких как Джон Уэттон (бас, вокал, экс-"Roxy music", "King Crimson", "Uriah Heep", "Family"), Билл Брафорд (ударные, экс-"Yes", "King Crimson") и Аллан Холдсворт (гитара, экс-"Soft machine", "Gong"). Ансамбль стал исполнять сложный эпический арт-рок с выраженным классико- симфоническим началом и в конце 70-х не имел себе равных на фоне спада "Yes", "Genesis" и "ELP".
Кроме того, во многом "UK" обставили своих великих предшественников, например, с использованием скрипки в качестве солирующего инструмента. Новый грандиозный творческий сплав, представленный их дебютным (одноименным названию группы) альбомом, по мнению многих, оказавшимся лучшим диском 1978 года, обладал смелостью и сложностью, но не менее
существенными достоинствами явились его красота и многоцветность.
загрузка...
Правила, инструкции, FAQ!!!
Торрент  Добавлен [30 май 2014, 00:22] Скачать торрент
Скачать торрент
[ Размер 20.35 КБ / Просмотров 31 ]

Статус
Проверен 
 
Размер  896.88 МБ
Приватный: Нет (DHT включён)
.torrent скачан  1
Как залить торрент? | Как скачать Torrent? | Как смотреть и слушать онлайн?  


     Отправить личное сообщение
   
Страница 1 из 1
Показать сообщения за:  Поле сортировки  
Начать новую тему Ответить на тему

   Похожие торренты   Автор   Ответы   Просмотры   Последнее сообщение 
В этой теме нет новых непрочитанных сообщений. Скачать торрент Проверен (Progressive Rock) U.K. (UK) /Eddie Jobson, John Wetton, Allan Holdsworth, Bill Bruford, Terry Bozzio/ - Official Discography (non-remasters) - 3 albums (1978-1979), FLAC (image+.cue), lossless

в форуме Progressive & Art-Rock, Размер: 896.88 МБ, Здоровье: 100%

Anonymous

0
18|6

9
1

02 сен 2016, 12:50

Anonymous Перейти к последнему сообщению

В этой теме нет новых непрочитанных сообщений. Скачать торрент Проверен FM - 3 альбома (1977-1979) Remaster /2013, Cherry Red Records/ [FLAC|Lossless]<Progressive Rock>

в форуме Рок, Панк, Метал, Альтернатива, Размер: 684.7 МБ, Здоровье: ???%

Anonymous

0
0|19

41
0

30 май 2014, 00:22

Anonymous Перейти к последнему сообщению

В этой теме нет новых непрочитанных сообщений. Скачать торрент Проверен Marillion - Три альбома (1984 - 1988) early pressings /EMI, Capitol Records/ [FLAC|Lossless]<Neo-progressive Rock>

в форуме Рок, Панк, Метал, Альтернатива, Размер: 1.27 ГБ, Здоровье: 0%

Anonymous

0
0|0

43
0

05 июн 2014, 00:01

Anonymous Перейти к последнему сообщению

В этой теме нет новых непрочитанных сообщений. Скачать торрент Проверен (Progressive Rock) [24/192] Kayak - Phantom Of The Night [Janus Records JXS 7039 US A1-B1] - 1979 (1978), FLAC (image+.cue)

в форуме Зарубежный рок (оцифровки), Размер: 1.4 ГБ, Здоровье: 0%

Anonymous

0
0|0

2
0

26 авг 2016, 09:49

Anonymous Перейти к последнему сообщению

В этой теме нет новых непрочитанных сообщений. Скачать торрент Проверен (Rock, Progressive Rock) [CD] U.K. (UK) - Discography (3 Albums 1978-1979) - 2014 (Mini LP Platinum SHM-CD Universal Music Japan), FLAC (image+.cue), lossless

в форуме Progressive & Art-Rock, Размер: 1.45 ГБ, Здоровье: 100%

Anonymous

0
11|3

15
1

02 сен 2016, 13:32

Anonymous Перейти к последнему сообщению



Сейчас этот форум просматривают: нет зарегистрированных пользователей и гости: 1


Вы не можете начинать темы
Вы не можете отвечать на сообщения
Вы не можете редактировать свои сообщения
Вы не можете удалять свои сообщения
Вы не можете добавлять вложения

Перейти:  

!ВНИМАНИЕ!
 Ресурс не предоставляет электронные версии произведений, а занимается лишь коллекционированием и каталогизацией ссылок, присылаемых и публикуемых на форуме нашими читателями. Если вы являетесь правообладателем какого-либо представленного материала и не желаете чтобы ссылка на него находилась в нашем каталоге, свяжитесь с нами и мы незамедлительно удалим её. Файлы для обмена на трекере предоставлены пользователями сайта, и администрация не несёт ответственности за их содержание. Просьба не заливать файлы, защищенные авторскими правами, а также файлы нелегального содержания!