На всех торрентах на трекере установлена скидка на скачивание в размере 100 процентов(а).
 Возможность скачивания торрента НЕ зависит от ограничений при низком ратио, низком аплоаде, требуемом ратио или требуемом аплоаде.


Начать новую тему Ответить на тему
Статистика раздачи
Размер: 1.33 ГБ | Добавлен: 27 фев 2014, 11:43 | Скачали: 0
Сидеров: 0  [0 байт/сек]    Личеров: 13  [0 байт/сек]
Пред. тема | След. тема 

Автор
Сообщение

СообщениеДобавлено: 27 фев 2014, 11:43 

Shivaree - Дискография (8 CDs) (1999-2007)

Год: 1999-2007
Жанр: Indie, Rock, Alternative, Pop-Rock

Кодек: APE+FLAC
Битрейт: Lossless
Тип битрейта: CBR
#777Shivaree — американская альтернативная поп/рок группа, образованная в 1999 году. В состав входят Амброзия Парсли (Ambrosia Parsley, вокал), Дэнни Макгаф (Danny McGough, клавишные) и Дюк Маквинни (Duke McVinnie, гитара). Самая известная песня Shivaree — «Goodnight Moon» (Спокойной ночи, луна), выпущенная в 1999 году и прозвучавшая в сериале Бухта Доусона (Dawson’s Creek) и культовом фильме Убить Билла.

Название группы происходит от американского выражения «shivaree», что в грубой форме означает шуточная серенада новобрачным. Чаще всего выражение используется в окрестностях реки Миссисипи и к западу от неё. Группа записала четыре полноценных альбома (с одним не получившим распространения в Северной Америке из-за разногласий в контракте), имевшие суммарный тираж около 500 тысяч копий. В своей работе они доверяют множеству других музыкантов и на концертах обычно выступают вместе с двумя или тремя своими соавторами. Группа использует в своей музыке исконные южные мысли и образы, ссылаясь на влияние Уильяма Фолкнера. После разногласий в контракте с их предыдущей звукозаписывающей компанией казалось, что группа распадётся после второго альбома. Однако в результате позже выходит сингл и два новых альбома.

Музыка Shivaree — тягучий коктейль джаза, кантри и поп-музыки. С первого взгляда это будуарные баллады, но, прислушавшись к голосу и словам Амброзии, замечаешь инфернальные девиантные нотки — эта девушка могла бы являться Фрейду в его неспокойных жарких снах.

Амброзия Парсли (Ambrosia Parsley), сколько помнит себя, всегда была окружена музыкой. После работы ее отец и братья рассаживались на террасе, брали в руки гитары и пели – главным образом кантри, иногда спиричуэл. Даже бабушка Нанни в свои 70 нередко певала свои любимые баллады, подыгрывая на укулеле. Ничего необычного для людей из Западной Вирджинии, хотя семья Парсли не из местных. Сама Амброзия тоже пела чуть ли не с младенчества, а первые ее публичные выступления состоялись в 7 лет в пицца-баре в сопровождении оркестра банджистов. Позже она сама начала писать песни.

Встреча Амброзии и двух музыкантов группы Шивари, гитаристом Дюком МакВинном и клавишником Дэнни МакГафом, тоже произошла случайно. «После своего детского опыта я и думать перестала о том, чтобы стать певицей. Я много работала: официанткой, продавцом в библиотеке, продавцом косметики, но я не переставала писать. Мне нравилось сочинять рассказы, которые могли вызвать сильные эмоции, и украшать их словами. Я познакомилась с Дюком на вечеринке, и он сразу вошел в мою жизнь и стал работать над аранжировкой одной из моих песен». Так появилось гармоничное трио, избравшее себе имя Shivaree.

«Мы просто пишем песни, — говорит Амброзия. — Но каждая песня должна быть маленьким отдельным мирком. Самое главное — сохранить спокойствие и иронию даже в самой грустной композиции». Например, песня “Ash Wednesday” посвящена кремации сестры Дюка, которая скончалась от рака. В этом философия певицы. «Только если вы сможете изгнать трагедии, у вас получится вести спокойную жизнь».

Несмотря на свою чувственность, эта калифорнийская певица представляет собой анти-звезду, которая играет со славой с иронией опытного мастера блефа

PS: родила и воспитывает маленького, который, как она и хотела, very-very nice .
Albums
#777Продолжительность: 00:41:30

Треклист:

01. Cannibal King (0:46)
02. Bossa Nova (3:28)
03. Daring Lousy Guy (4:15)
04. Arlington Girl (6:59)
05. Oh, No (3:25)
06. Lunch (4:44)
07. Goodnight Moon (4:04)
08. I Don't Care (4:38)
09. Pimp (3:32)
10. Idiot Waltz (3:03)
11. Ash Wednesday (1:14)
12. Arrivederci (1:22)
Код:
Код:
EAC extraction logfile from 11. February 2007, 14:34 for CD
Shivaree / I Oughtta Give You A Shot In The Head For Making Me Live In This Dump

Used drive  : HL-DT-STDVDRAM GMA-4082N   Adapter: 1  ID: 0
Read mode   : Secure with NO C2, accurate stream, disable cache
Read offset correction : 667
Overread into Lead-In and Lead-Out : No

Used output format : C:\Programme\FLAC\flac.exe   (User Defined Encoder)
                     128 kBit/s
                     Additional command line options :  -8 -V -T "ARTIST=%a" -T "TITLE=%t" -T "ALBUM=%g" -T "DATE=%y" -T "TRACKNUMBER=%n" -T "GENRE=%m" -T "COMMENT=EAC Flac 1.1.2 -5" %s

Other options      :
    Fill up missing offset samples with silence : Yes
    Delete leading and trailing silent blocks : No
    Installed external ASPI interface

Track  1
     Filename E:\Shivaree - I Oughtta Give You A Shot In The Head For Making Me Live In This Dump\01 - Cannibal King.wav

     Pre-gap length  0:00:02.00

     Peak level 91.7 %
     Track quality 99.7 %
     Test CRC 93438321
     Copy CRC 93438321
     Copy OK

Track  2
     Filename E:\Shivaree - I Oughtta Give You A Shot In The Head For Making Me Live In This Dump\02 - Bossa Nova.wav

     Peak level 99.8 %
     Track quality 100.0 %
     Test CRC 58DD8A1C
     Copy CRC 58DD8A1C
     Copy OK

Track  3
     Filename E:\Shivaree - I Oughtta Give You A Shot In The Head For Making Me Live In This Dump\03 - Daring Lousy Guy.wav

     Peak level 99.6 %
     Track quality 100.0 %
     Test CRC 27C794EE
     Copy CRC 27C794EE
     Copy OK

Track  4
     Filename E:\Shivaree - I Oughtta Give You A Shot In The Head For Making Me Live In This Dump\04 - Arlington Girl.wav

     Peak level 99.8 %
     Track quality 100.0 %
     Test CRC 5D4A93FE
     Copy CRC 5D4A93FE
     Copy OK

Track  5
     Filename E:\Shivaree - I Oughtta Give You A Shot In The Head For Making Me Live In This Dump\05 - Oh, No.wav

     Peak level 99.8 %
     Track quality 100.0 %
     Test CRC 4432BB19
     Copy CRC 4432BB19
     Copy OK

Track  6
     Filename E:\Shivaree - I Oughtta Give You A Shot In The Head For Making Me Live In This Dump\06 - Lunch.wav

     Pre-gap length  0:00:01.00

     Peak level 99.8 %
     Track quality 100.0 %
     Test CRC 4A6D0CAC
     Copy CRC 4A6D0CAC
     Copy OK

Track  7
     Filename E:\Shivaree - I Oughtta Give You A Shot In The Head For Making Me Live In This Dump\07 - Goodnight Moon.wav

     Peak level 98.8 %
     Track quality 100.0 %
     Test CRC 955092B7
     Copy CRC 955092B7
     Copy OK

Track  8
     Filename E:\Shivaree - I Oughtta Give You A Shot In The Head For Making Me Live In This Dump\08 - I Don't Care.wav

     Pre-gap length  0:00:00.02

     Peak level 99.8 %
     Track quality 99.9 %
     Test CRC 69930EF7
     Copy CRC 69930EF7
     Copy OK

Track  9
     Filename E:\Shivaree - I Oughtta Give You A Shot In The Head For Making Me Live In This Dump\09 - Pimp.wav

     Peak level 98.0 %
     Track quality 100.0 %
     Test CRC EA5E0CEA
     Copy CRC EA5E0CEA
     Copy OK

Track 10
     Filename E:\Shivaree - I Oughtta Give You A Shot In The Head For Making Me Live In This Dump\10 - Idiot Waltz.wav

     Pre-gap length  0:00:00.13

     Peak level 99.8 %
     Track quality 99.9 %
     Test CRC FD574F2E
     Copy CRC FD574F2E
     Copy OK

Track 11
     Filename E:\Shivaree - I Oughtta Give You A Shot In The Head For Making Me Live In This Dump\11 - Ash Wednesday.wav

     Peak level 93.8 %
     Track quality 99.8 %
     Test CRC 5CC744D5
     Copy CRC 5CC744D5
     Copy OK

Track 12
     Filename E:\Shivaree - I Oughtta Give You A Shot In The Head For Making Me Live In This Dump\12 - Arrivederci.wav

     Pre-gap length  0:00:22.84

     Peak level 99.8 %
     Track quality 100.0 %
     Test CRC E01C34D7
     Copy CRC E01C34D7
     Copy OK

No errors occured

End of status report
AUDIOCHECKER v2.0 beta (build 457) - by Dester -
~~~~~~~~~~~~~~~~~~~~~~~~~~~~~~~~~~
-=== НЕ РЕДАКТИРУЙТЕ ЭТОТ ФАЙЛ! ===-

Путь: ...\1999. I Oughtta Give You A Shot In The Head For Making Me Live In This Dump

01 -=- 01 - Cannibal King.flac -=- CDDA (100%)
02 -=- 02 - Bossa Nova.flac -=- CDDA (100%)
03 -=- 03 - Daring Lousy Guy.flac -=- CDDA (100%)
04 -=- 04 - Arlington Girl.flac -=- CDDA (100%)
05 -=- 05 - Oh, No.flac -=- CDDA (100%)
06 -=- 06 - Lunch.flac -=- CDDA (100%)
07 -=- 07 - Goodnight Moon.flac -=- CDDA (100%)
08 -=- 08 - I Don't Care.flac -=- CDDA (100%)
09 -=- 09 - Pimp.flac -=- CDDA (100%)
10 -=- 10 - Idiot Waltz.flac -=- CDDA (100%)
11 -=- 11 - Ash Wednesday.flac -=- CDDA (100%)
12 -=- 12 - Arrivederci.flac -=- CDDA (100%)

Сводка 100,00% CDDA

184816660
#777Продолжительность: 00:39:10

Треклист:

01. Wagers (1:51)
02. Gone Too Far (3:21)
03. After The Prince And The Showgirl (3:35)
04. All Because You Told Me So (3:13)
05. Thundercats (3:07)
06. Snake Eyes (1:38)
07. Stealing Home (4:03)
08. John, 2,14 (3:23)
09. Reseda Casino (3:22)
10. Ten Minutes (3:48)
11. Queen-Sized Tomb (5:07)
12. Flycatcher (2:44)
Код:
Код:
Exact Audio Copy V0.99 prebeta 4 from 23. January 2008

EAC extraction logfile from 15. May 2008, 7:25

Shivaree / Rough Dreams

Used drive  : HL-DT-STRW/DVD GCC-4244N   Adapter: 0  ID: 1

Read mode               : Secure
Utilize accurate stream : Yes
Defeat audio cache      : Yes
Make use of C2 pointers : No

Read offset correction                      : 102
Overread into Lead-In and Lead-Out          : No
Fill up missing offset samples with silence : Yes
Delete leading and trailing silent blocks   : No
Null samples used in CRC calculations       : Yes
Used interface                              : Native Win32 interface for Win NT & 2000
Gap handling                                : Appended to previous track

Used output format              : User Defined Encoder
Selected bitrate                : 128 kBit/s
Quality                         : High
Add ID3 tag                     : Yes
Command line compressor         : C:\Program Files\FLAC\flac.exe
Additional command line options : -V -8 -T \"artist=%a\" -T \"title=%t\" -T \"album=%g\" -T \"date=%y\" -T \"tracknumber=%n\" -T \"genre=%m\" %s

TOC of the extracted CD

     Track |   Start  |  Length  | Start sector | End sector
    ---------------------------------------------------------
        1  |  0:00.00 |  1:50.62 |         0    |     8311
        2  |  1:50.62 |  3:21.03 |      8312    |    23389
        3  |  5:11.65 |  3:34.60 |     23390    |    39499
        4  |  8:46.50 |  3:12.42 |     39500    |    53941
        5  | 11:59.17 |  3:07.35 |     53942    |    68001
        6  | 15:06.52 |  1:37.48 |     68002    |    75324
        7  | 16:44.25 |  4:02.55 |     75325    |    93529
        8  | 20:47.05 |  3:22.47 |     93530    |   108726
        9  | 24:09.52 |  3:22.03 |    108727    |   123879
       10  | 27:31.55 |  3:47.45 |    123880    |   140949
       11  | 31:19.25 |  5:07.07 |    140950    |   163981
       12  | 36:26.32 |  2:44.08 |    163982    |   176289

Track  1

     Filename C:\Documents and Settings\Nicole_R\Desktop\FLAC\Shivaree - Rough Dreams\01 Wagers.wav

     Pre-gap length  0:00:02.00

     Peak level 55.6 %
     Track quality 100.0 %
     Test CRC 7A08ECF0
     Copy CRC 7A08ECF0
     Accurately ripped (confidence 7)  [03B7E47F]
     Copy OK

Track  2

     Filename C:\Documents and Settings\Nicole_R\Desktop\FLAC\Shivaree - Rough Dreams\02 Gone Too Far.wav

     Peak level 99.8 %
     Track quality 100.0 %
     Test CRC 85DACA33
     Copy CRC 85DACA33
     Accurately ripped (confidence 7)  [6825D713]
     Copy OK

Track  3

     Filename C:\Documents and Settings\Nicole_R\Desktop\FLAC\Shivaree - Rough Dreams\03 After The Prince And The Showgirl.wav

     Peak level 99.8 %
     Track quality 100.0 %
     Test CRC 3C3AF1DC
     Copy CRC 3C3AF1DC
     Accurately ripped (confidence 7)  [53011D34]
     Copy OK

Track  4

     Filename C:\Documents and Settings\Nicole_R\Desktop\FLAC\Shivaree - Rough Dreams\04 All Because You Told Me So.wav

     Pre-gap length  0:00:01.50

     Peak level 99.8 %
     Track quality 100.0 %
     Test CRC F5267AAB
     Copy CRC F5267AAB
     Accurately ripped (confidence 7)  [F6572ABC]
     Copy OK

Track  5

     Filename C:\Documents and Settings\Nicole_R\Desktop\FLAC\Shivaree - Rough Dreams\05 Thundercats.wav

     Pre-gap length  0:00:01.00

     Peak level 99.8 %
     Track quality 100.0 %
     Test CRC 5E4AE760
     Copy CRC 5E4AE760
     Accurately ripped (confidence 9)  [87635430]
     Copy OK

Track  6

     Filename C:\Documents and Settings\Nicole_R\Desktop\FLAC\Shivaree - Rough Dreams\06 Snake Eyes.wav

     Peak level 99.8 %
     Track quality 99.8 %
     Test CRC DA351BB4
     Copy CRC DA351BB4
     Accurately ripped (confidence 7)  [9B6706AD]
     Copy OK

Track  7

     Filename C:\Documents and Settings\Nicole_R\Desktop\FLAC\Shivaree - Rough Dreams\07 Stealing Home.wav

     Pre-gap length  0:00:02.00

     Peak level 99.8 %
     Track quality 99.9 %
     Test CRC 4439DE47
     Copy CRC 4439DE47
     Accurately ripped (confidence 7)  [90C1401F]
     Copy OK

Track  8

     Filename C:\Documents and Settings\Nicole_R\Desktop\FLAC\Shivaree - Rough Dreams\08 John, 2,14.wav

     Pre-gap length  0:00:00.70

     Peak level 99.8 %
     Track quality 100.0 %
     Test CRC 17F0A3A9
     Copy CRC 17F0A3A9
     Accurately ripped (confidence 7)  [609A86CD]
     Copy OK

Track  9

     Filename C:\Documents and Settings\Nicole_R\Desktop\FLAC\Shivaree - Rough Dreams\09 Reseda Casino.wav

     Pre-gap length  0:00:00.62

     Peak level 99.8 %
     Track quality 100.0 %
     Test CRC AC6242DA
     Copy CRC AC6242DA
     Accurately ripped (confidence 7)  [9AB6922B]
     Copy OK

Track 10

     Filename C:\Documents and Settings\Nicole_R\Desktop\FLAC\Shivaree - Rough Dreams\10 Ten Minutes.wav

     Peak level 99.8 %
     Track quality 100.0 %
     Test CRC E6FB5273
     Copy CRC E6FB5273
     Accurately ripped (confidence 9)  [83C4EC19]
     Copy OK

Track 11

     Filename C:\Documents and Settings\Nicole_R\Desktop\FLAC\Shivaree - Rough Dreams\11 Queen-Sized Tomb.wav

     Pre-gap length  0:00:03.04

     Peak level 99.8 %
     Track quality 100.0 %
     Test CRC 21A256CE
     Copy CRC 21A256CE
     Accurately ripped (confidence 7)  [140AF927]
     Copy OK

Track 12

     Filename C:\Documents and Settings\Nicole_R\Desktop\FLAC\Shivaree - Rough Dreams\12 Flycatcher.wav

     Pre-gap length  0:00:05.56

     Peak level 99.8 %
     Track quality 100.0 %
     Test CRC E62BC76F
     Copy CRC E62BC76F
     Accurately ripped (confidence 7)  [7A084C7A]
     Copy OK

All tracks accurately ripped

No errors occurred

End of status report
AUDIOCHECKER v2.0 beta (build 457) - by Dester -
~~~~~~~~~~~~~~~~~~~~~~~~~~~~~~~~~~
-=== НЕ РЕДАКТИРУЙТЕ ЭТОТ ФАЙЛ! ===-

Путь: ...\2002. Rough Dreams

01 -=- 01 Wagers.flac -=- CDDA (100%)
02 -=- 02 Gone Too Far.flac -=- CDDA (100%)
03 -=- 03 After The Prince And The Showgirl.flac -=- CDDA (100%)
04 -=- 04 All Because You Told Me So.flac -=- CDDA (100%)
05 -=- 05 Thundercats.flac -=- CDDA (100%)
06 -=- 06 Snake Eyes.flac -=- CDDA (100%)
07 -=- 07 Stealing Home.flac -=- CDDA (100%)
08 -=- 08 John, 2,14.flac -=- CDDA (100%)
09 -=- 09 Reseda Casino.flac -=- CDDA (100%)
10 -=- 10 Ten Minutes.flac -=- CDDA (100%)
11 -=- 11 Queen-Sized Tomb.flac -=- CDDA (99%)
12 -=- 12 Flycatcher.flac -=- CDDA (100%)

Сводка 99,92% CDDA

101297172
#777Продолжительность: 00:43:26

Треклист:

01. New Casablanca (3:08)
02. I Close My Eyes (3:56)
03. Someday (2:12)
04. Lost In A Dream (4:38)
05. Little Black Mess (4:33)
06. Mexican Boyfriend (3:40)
07. The Fat Lady Of Limbourg (4:13)
08. 2 Far (2:56)
09. Baby Girls (5:20)
10. It Got All Black (4:02)
11. I Will Go Quietly (4:48)
Код:
Код:
Exact Audio Copy V0.99 prebeta 4 from 23. January 2008

EAC extraction logfile from 26. April 2009, 15:09

Shivaree / Who's Got Trouble?

Used drive  : PLEXTOR CD-R   PREMIUM   Adapter: 0  ID: 0

Read mode               : Secure
Utilize accurate stream : Yes
Defeat audio cache      : Yes
Make use of C2 pointers : No

Read offset correction                      : 30
Overread into Lead-In and Lead-Out          : Yes
Fill up missing offset samples with silence : Yes
Delete leading and trailing silent blocks   : No
Null samples used in CRC calculations       : Yes
Used interface                              : Native Win32 interface for Win NT & 2000
Gap handling                                : Appended to previous track

Used output format              : User Defined Encoder
Selected bitrate                : 320 kBit/s
Quality                         : High
Add ID3 tag                     : No
Command line compressor         : C:\Program Files\Exact Audio Copy\Flac\flac.exe
Additional command line options : -V -8 -T "artist=%a" -T "title=%t" -T "album=%g" -T "date=%y" -T "tracknumber=%n" -T "genre=%m" %s

TOC of the extracted CD

     Track |   Start  |  Length  | Start sector | End sector
    ---------------------------------------------------------
        1  |  0:00.00 |  3:07.74 |         0    |    14098
        2  |  3:07.74 |  3:55.74 |     14099    |    31797
        3  |  7:03.73 |  2:11.70 |     31798    |    41692
        4  |  9:15.68 |  4:37.49 |     41693    |    62516
        5  | 13:53.42 |  4:32.67 |     62517    |    82983
        6  | 18:26.34 |  3:40.20 |     82984    |    99503
        7  | 22:06.54 |  4:13.06 |     99504    |   118484
        8  | 26:19.60 |  2:55.68 |    118485    |   131677
        9  | 29:15.53 |  5:20.37 |    131678    |   155714
       10  | 34:36.15 |  4:02.14 |    155715    |   173878
       11  | 38:38.29 |  4:48.04 |    173879    |   195482

Track  1

     Filename C:\EACRips\01 New Casablanca.wav

     Pre-gap length  0:00:02.00

     Peak level 99.8 %
     Track quality 100.0 %
     Test CRC A41EC5DA
     Copy CRC A41EC5DA
     Accurately ripped (confidence 18)  [38B0EB1E]
     Copy OK

Track  2

     Filename C:\EACRips\02 I Close My Eyes.wav

     Peak level 100.0 %
     Track quality 100.0 %
     Test CRC B4C718CF
     Copy CRC B4C718CF
     Accurately ripped (confidence 18)  [077882E8]
     Copy OK

Track  3

     Filename C:\EACRips\03 Someday.wav

     Peak level 99.8 %
     Track quality 100.0 %
     Test CRC A6AA61A9
     Copy CRC A6AA61A9
     Accurately ripped (confidence 18)  [D23A3B50]
     Copy OK

Track  4

     Filename C:\EACRips\04 Lost In A Dream.wav

     Pre-gap length  0:00:01.15

     Peak level 92.4 %
     Track quality 100.0 %
     Test CRC 589DCD19
     Copy CRC 589DCD19
     Accurately ripped (confidence 18)  [0E87BD0D]
     Copy OK

Track  5

     Filename C:\EACRips\05 Little Black Mess.wav

     Pre-gap length  0:00:01.30

     Peak level 99.8 %
     Track quality 100.0 %
     Test CRC 256E3494
     Copy CRC 256E3494
     Accurately ripped (confidence 18)  [FEE545F8]
     Copy OK

Track  6

     Filename C:\EACRips\06 Mexican Boyfriend.wav

     Pre-gap length  0:00:01.35

     Peak level 99.8 %
     Track quality 100.0 %
     Test CRC 3AEA56D8
     Copy CRC 3AEA56D8
     Accurately ripped (confidence 18)  [4486AED9]
     Copy OK

Track  7

     Filename C:\EACRips\07 The Fat Lady Of Limbourg.wav

     Peak level 99.8 %
     Track quality 100.0 %
     Test CRC 4DF1BC2A
     Copy CRC 4DF1BC2A
     Accurately ripped (confidence 18)  [3AF32197]
     Copy OK

Track  8

     Filename C:\EACRips\08 2 Far.wav

     Peak level 98.8 %
     Track quality 100.0 %
     Test CRC ECEC5519
     Copy CRC ECEC5519
     Accurately ripped (confidence 18)  [74A7C120]
     Copy OK

Track  9

     Filename C:\EACRips\09 Baby Girls.wav

     Pre-gap length  0:00:01.46

     Peak level 99.8 %
     Track quality 100.0 %
     Test CRC D362B2EC
     Copy CRC D362B2EC
     Accurately ripped (confidence 18)  [E5D5CA42]
     Copy OK

Track 10

     Filename C:\EACRips\10 It Got All Black.wav

     Pre-gap length  0:00:02.27

     Peak level 99.8 %
     Track quality 100.0 %
     Test CRC 3708CE44
     Copy CRC 3708CE44
     Accurately ripped (confidence 17)  [40FC09B8]
     Copy OK

Track 11

     Filename C:\EACRips\11 I Will Go Quietly.wav

     Peak level 99.8 %
     Track quality 100.0 %
     Test CRC 6D067F59
     Copy CRC 6D067F59
     Accurately ripped (confidence 17)  [4108B16D]
     Copy OK

All tracks accurately ripped

No errors occurred

End of status report
AUDIOCHECKER v2.0 beta (build 457) - by Dester -
~~~~~~~~~~~~~~~~~~~~~~~~~~~~~~~~~~
-=== НЕ РЕДАКТИРУЙТЕ ЭТОТ ФАЙЛ! ===-

Путь: ...\2005. Who's Got Trouble

01 -=- 01 New Casablanca.flac -=- CDDA (100%)
02 -=- 02 I Close My Eyes.flac -=- CDDA (100%)
03 -=- 03 Someday.flac -=- CDDA (99%)
04 -=- 04 Lost In A Dream.flac -=- CDDA (100%)
05 -=- 05 Little Black Mess.flac -=- CDDA (99%)
06 -=- 06 Mexican Boyfriend.flac -=- CDDA (100%)
07 -=- 07 The Fat Lady Of Limbourg.flac -=- CDDA (100%)
08 -=- 08 2 Far.flac -=- CDDA (100%)
09 -=- 09 Baby Girls.flac -=- CDDA (99%)
10 -=- 10 It Got All Black.flac -=- CDDA (100%)
11 -=- 11 I Will Go Quietly.flac -=- CDDA (100%)

Сводка 99,73% CDDA

20781588
#777Продолжительность: 00:34:04

Треклист:

01. Paradise (3:49)
02. I Wanna Be Your Driver (2:30)
03. Half On A Baby (4:15)
04. Don't Stop 'Til You Get Enough (4:02)
05. Would You Lay With Me (In A Field Of Stone) (3:22)
06. Helllo Hello I'm Back Again (2:56)
07. My Heart Belongs To You (1:51)
08. Cold Blooded (3:33)
09. Looks That Kill (3:19)
10. Shame On You (2:19)
11. Goodnight Irene (2:08)
Код:
Код:
Exact Audio Copy V0.99 prebeta 4 from 23. January 2008

EAC extraction logfile from 26. April 2009, 15:28

Shivaree / Tainted Love: Mating Calls And Fight Songs

Used drive  : PLEXTOR CD-R   PREMIUM   Adapter: 0  ID: 0

Read mode               : Secure
Utilize accurate stream : Yes
Defeat audio cache      : Yes
Make use of C2 pointers : No

Read offset correction                      : 30
Overread into Lead-In and Lead-Out          : Yes
Fill up missing offset samples with silence : Yes
Delete leading and trailing silent blocks   : No
Null samples used in CRC calculations       : Yes
Used interface                              : Native Win32 interface for Win NT & 2000
Gap handling                                : Appended to previous track

Used output format              : User Defined Encoder
Selected bitrate                : 320 kBit/s
Quality                         : High
Add ID3 tag                     : No
Command line compressor         : C:\Program Files\Exact Audio Copy\Flac\flac.exe
Additional command line options : -V -8 -T "artist=%a" -T "title=%t" -T "album=%g" -T "date=%y" -T "tracknumber=%n" -T "genre=%m" %s

TOC of the extracted CD

     Track |   Start  |  Length  | Start sector | End sector
    ---------------------------------------------------------
        1  |  0:00.00 |  3:48.74 |         0    |    17173
        2  |  3:48.74 |  2:29.69 |     17174    |    28417
        3  |  6:18.68 |  4:15.11 |     28418    |    47553
        4  | 10:34.04 |  4:01.71 |     47554    |    65699
        5  | 14:36.00 |  3:21.64 |     65700    |    80838
        6  | 17:57.64 |  2:56.18 |     80839    |    94056
        7  | 20:54.07 |  1:51.09 |     94057    |   102390
        8  | 22:45.16 |  3:33.21 |    102391    |   118386
        9  | 26:18.37 |  3:19.08 |    118387    |   133319
       10  | 29:37.45 |  2:19.33 |    133320    |   143777
       11  | 31:57.03 |  2:07.63 |    143778    |   153365

Track  1

     Filename C:\EACRips\01 Paradise.wav

     Pre-gap length  0:00:02.00

     Peak level 99.8 %
     Track quality 100.0 %
     Test CRC 2C72272C
     Copy CRC 2C72272C
     Accurately ripped (confidence 11)  [727F032D]
     Copy OK

Track  2

     Filename C:\EACRips\02 I Wanna Be Your Driver.wav

     Pre-gap length  0:00:01.21

     Peak level 99.3 %
     Track quality 100.0 %
     Test CRC 31957167
     Copy CRC 31957167
     Accurately ripped (confidence 12)  [42EF1126]
     Copy OK

Track  3

     Filename C:\EACRips\03 Half On A Baby.wav

     Pre-gap length  0:00:01.16

     Peak level 95.6 %
     Track quality 100.0 %
     Test CRC 4D5FE60D
     Copy CRC 4D5FE60D
     Accurately ripped (confidence 11)  [92A0D326]
     Copy OK

Track  4

     Filename C:\EACRips\04 Don't Stop 'Til You Get Enough.wav

     Peak level 96.8 %
     Track quality 100.0 %
     Test CRC 74E3CD5F
     Copy CRC 74E3CD5F
     Accurately ripped (confidence 12)  [149A6EEC]
     Copy OK

Track  5

     Filename C:\EACRips\05 Would You Lay With Me (In A Field Of Stone).wav

     Pre-gap length  0:00:00.46

     Peak level 92.4 %
     Track quality 100.0 %
     Test CRC 38BD0E40
     Copy CRC 38BD0E40
     Accurately ripped (confidence 11)  [E3CC1003]
     Copy OK

Track  6

     Filename C:\EACRips\06 Helllo Hello I'm Back Again.wav

     Peak level 97.5 %
     Track quality 100.0 %
     Test CRC 40AF86F3
     Copy CRC 40AF86F3
     Accurately ripped (confidence 11)  [5FAB619B]
     Copy OK

Track  7

     Filename C:\EACRips\07 My Heart Belongs To You.wav

     Pre-gap length  0:00:01.29

     Peak level 92.9 %
     Track quality 100.0 %
     Test CRC 38E3037E
     Copy CRC 38E3037E
     Accurately ripped (confidence 11)  [785A456D]
     Copy OK

Track  8

     Filename C:\EACRips\08 Cold Blooded.wav

     Peak level 99.8 %
     Track quality 100.0 %
     Test CRC 9C8A6C9D
     Copy CRC 9C8A6C9D
     Accurately ripped (confidence 11)  [33F3AE23]
     Copy OK

Track  9

     Filename C:\EACRips\09 Looks That Kill.wav

     Pre-gap length  0:00:01.32

     Peak level 96.2 %
     Track quality 100.0 %
     Test CRC 80F59551
     Copy CRC 80F59551
     Accurately ripped (confidence 11)  [7591CAF6]
     Copy OK

Track 10

     Filename C:\EACRips\10 Shame On You.wav

     Pre-gap length  0:00:02.22

     Peak level 93.7 %
     Track quality 100.0 %
     Test CRC 1427A7BD
     Copy CRC 1427A7BD
     Accurately ripped (confidence 11)  [A544514B]
     Copy OK

Track 11

     Filename C:\EACRips\11 Goodnight Irene.wav

     Pre-gap length  0:00:02.33

     Peak level 92.1 %
     Track quality 99.9 %
     Test CRC 09C811DD
     Copy CRC 09C811DD
     Accurately ripped (confidence 12)  [D436EE97]
     Copy OK

All tracks accurately ripped

No errors occurred

End of status report
AUDIOCHECKER v2.0 beta (build 457) - by Dester -
~~~~~~~~~~~~~~~~~~~~~~~~~~~~~~~~~~
-=== НЕ РЕДАКТИРУЙТЕ ЭТОТ ФАЙЛ! ===-

Путь: ...\2007. Tainted Love - Mating Calls And Fight Songs

01 -=- 01 Paradise.flac -=- CDDA (100%)
02 -=- 02 I Wanna Be Your Driver.flac -=- CDDA (99%)
03 -=- 03 Half On A Baby.flac -=- CDDA (100%)
04 -=- 04 Don't Stop 'Til You Get Enough.flac -=- CDDA (100%)
05 -=- 05 Would You Lay With Me (In A Field Of Stone).flac -=- CDDA (100%)
06 -=- 06 Helllo Hello I'm Back Again.flac -=- CDDA (100%)
07 -=- 07 My Heart Belongs To You.flac -=- CDDA (100%)
08 -=- 08 Cold Blooded.flac -=- CDDA (100%)
09 -=- 09 Looks That Kill.flac -=- CDDA (100%)
10 -=- 10 Shame On You.flac -=- CDDA (100%)
11 -=- 11 Goodnight Irene.flac -=- CDDA (100%)

Сводка 99,91% CDDA

153886340
EP's
#777Продолжительность: 00:17:04

Треклист:

01. Goodnight Moon (Live) (4:15)
02. I Don't Care (Live) (4:26)
03. Scrub (5:50)
04. My Boy Lollipop (2:33)
Код:
Код:
Exact Audio Copy V0.99 prebeta 4 from 23. January 2008

EAC extraction logfile from 26. April 2009, 17:09

Shivaree / Corrupt And Immoral Transmissions

Used drive  : PLEXTOR DVDR   PX-760A   Adapter: 2  ID: 1

Read mode               : Secure
Utilize accurate stream : Yes
Defeat audio cache      : Yes
Make use of C2 pointers : No

Read offset correction                      : 30
Overread into Lead-In and Lead-Out          : Yes
Fill up missing offset samples with silence : Yes
Delete leading and trailing silent blocks   : No
Null samples used in CRC calculations       : Yes
Used interface                              : Native Win32 interface for Win NT & 2000
Gap handling                                : Appended to previous track

Used output format              : User Defined Encoder
Selected bitrate                : 320 kBit/s
Quality                         : High
Add ID3 tag                     : No
Command line compressor         : C:\Program Files\Exact Audio Copy\Flac\flac.exe
Additional command line options : -V -8 -T "artist=%a" -T "title=%t" -T "album=%g" -T "date=%y" -T "tracknumber=%n" -T "genre=%m" %s

TOC of the extracted CD

     Track |   Start  |  Length  | Start sector | End sector
    ---------------------------------------------------------
        1  |  0:00.00 |  4:14.45 |         0    |    19094
        2  |  4:14.45 |  4:26.30 |     19095    |    39074
        3  |  8:41.00 |  5:50.22 |     39075    |    65346
        4  | 14:31.22 |  2:33.35 |     65347    |    76856

Track  1

     Filename C:\EACRips\01 Goodnight Moon (Live).wav

     Pre-gap length  0:00:02.00

     Peak level 99.8 %
     Track quality 100.0 %
     Test CRC 74065D17
     Copy CRC 74065D17
     Track not present in AccurateRip database
     Copy OK

Track  2

     Filename C:\EACRips\02 I Don't Care (Live).wav

     Pre-gap length  0:00:01.45

     Peak level 99.8 %
     Track quality 100.0 %
     Test CRC E708A26C
     Copy CRC E708A26C
     Track not present in AccurateRip database
     Copy OK

Track  3

     Filename C:\EACRips\03 Scrub.wav

     Pre-gap length  0:00:01.53

     Peak level 92.3 %
     Track quality 99.9 %
     Test CRC D0FCFD20
     Copy CRC D0FCFD20
     Track not present in AccurateRip database
     Copy OK

Track  4

     Filename C:\EACRips\04 My Boy Lollipop.wav

     Pre-gap length  0:00:00.12

     Peak level 92.3 %
     Track quality 100.0 %
     Test CRC 407D7196
     Copy CRC 407D7196
     Track not present in AccurateRip database
     Copy OK

None of the tracks are present in the AccurateRip database

No errors occurred

End of status report
AUDIOCHECKER v2.0 beta (build 457) - by Dester -
~~~~~~~~~~~~~~~~~~~~~~~~~~~~~~~~~~
-=== НЕ РЕДАКТИРУЙТЕ ЭТОТ ФАЙЛ! ===-

Путь: ...\2000. Corrupt And Immoral Transmissions

1 -=- 01 Goodnight Moon (Live).flac -=- CDDA (100%)
2 -=- 02 I Don't Care (Live).flac -=- CDDA (100%)
3 -=- 03 Scrub.flac -=- CDDA (100%)
4 -=- 04 My Boy Lollipop.flac -=- CDDA (100%)

Сводка 100,00% CDDA

119257892
#777Продолжительность: 00:19:18

Треклист:

01. The Fat Lady of Limbourg (4:14)
02. I Close My Eyes (4:10)
03. Fear is a Man's Best Friend (3:19)
04. Strange Boat (3:41)
05. 657 Bed B (3:54)
Код:
Код:
Exact Audio Copy V0.99 prebeta 4 from 23. January 2008

EAC extraction logfile from 14. May 2008, 23:36

Shivaree / Breach

Used drive  : HL-DT-STRW/DVD GCC-4244N   Adapter: 0  ID: 1

Read mode               : Secure
Utilize accurate stream : Yes
Defeat audio cache      : Yes
Make use of C2 pointers : No

Read offset correction                      : 102
Overread into Lead-In and Lead-Out          : No
Fill up missing offset samples with silence : Yes
Delete leading and trailing silent blocks   : No
Null samples used in CRC calculations       : Yes
Used interface                              : Native Win32 interface for Win NT & 2000
Gap handling                                : Appended to previous track

Used output format              : User Defined Encoder
Selected bitrate                : 128 kBit/s
Quality                         : High
Add ID3 tag                     : Yes
Command line compressor         : C:\Program Files\FLAC\flac.exe
Additional command line options : -V -8 -T \"artist=%a\" -T \"title=%t\" -T \"album=%g\" -T \"date=%y\" -T \"tracknumber=%n\" -T \"genre=%m\" %s

TOC of the extracted CD

     Track |   Start  |  Length  | Start sector | End sector
    ---------------------------------------------------------
        1  |  0:00.00 |  4:13.46 |         0    |    19020
        2  |  4:13.46 |  4:10.09 |     19021    |    37779
        3  |  8:23.55 |  3:19.15 |     37780    |    52719
        4  | 11:42.70 |  3:41.18 |     52720    |    69312
        5  | 15:24.13 |  3:53.74 |     69313    |    86861

Track  1

     Filename C:\Documents and Settings\Nicole_R\Desktop\FLAC\Shivaree - Breach\01 The Fat Lady of Limbourg.wav

     Pre-gap length  0:00:02.00

     Peak level 99.8 %
     Track quality 100.0 %
     Test CRC 317A5967
     Copy CRC 317A5967
     Accurately ripped (confidence 4)  [48DD0ADE]
     Copy OK

Track  2

     Filename C:\Documents and Settings\Nicole_R\Desktop\FLAC\Shivaree - Breach\02 I Close My Eyes.wav

     Pre-gap length  0:00:00.61

     Peak level 99.8 %
     Track quality 100.0 %
     Test CRC 39D47A99
     Copy CRC 39D47A99
     Accurately ripped (confidence 4)  [00C45455]
     Copy OK

Track  3

     Filename C:\Documents and Settings\Nicole_R\Desktop\FLAC\Shivaree - Breach\03 Fear is a Man's Best Friend.wav

     Peak level 99.8 %
     Track quality 100.0 %
     Test CRC DCB8DE0D
     Copy CRC DCB8DE0D
     Accurately ripped (confidence 4)  [CE010292]
     Copy OK

Track  4

     Filename C:\Documents and Settings\Nicole_R\Desktop\FLAC\Shivaree - Breach\04 Strange Boat.wav

     Pre-gap length  0:00:02.72

     Peak level 99.8 %
     Track quality 100.0 %
     Test CRC B9C8F5EA
     Copy CRC B9C8F5EA
     Accurately ripped (confidence 4)  [C9209210]
     Copy OK

Track  5

     Filename C:\Documents and Settings\Nicole_R\Desktop\FLAC\Shivaree - Breach\05 657 Bed B.wav

     Pre-gap length  0:00:00.01

     Peak level 99.8 %
     Track quality 100.0 %
     Test CRC 2E5D54A4
     Copy CRC 2E5D54A4
     Accurately ripped (confidence 4)  [09BAE3E5]
     Copy OK

All tracks accurately ripped

No errors occurred

End of status report
AUDIOCHECKER v2.0 beta (build 457) - by Dester -
~~~~~~~~~~~~~~~~~~~~~~~~~~~~~~~~~~
-=== НЕ РЕДАКТИРУЙТЕ ЭТОТ ФАЙЛ! ===-

Путь: ...\2004. Breach

1 -=- 01 The Fat Lady of Limbourg.flac -=- CDDA (100%)
2 -=- 02 I Close My Eyes.flac -=- CDDA (100%)
3 -=- 03 Fear is a Man's Best Friend.flac -=- CDDA (100%)
4 -=- 04 Strange Boat.flac -=- CDDA (100%)
5 -=- 05 657 Bed B.flac -=- CDDA (100%)

Сводка 100,00% CDDA

221171476
Singles
#777Продолжительность: 00:15:36

Треклист:

01. Bossa Nova (The Luckiest Girl) (Allskate Mix) (3:34)
02. Bossa Nova (The Luckiest Girl) (Album Edit) (3:41)
03. I Don't Care (Live) (4:28)
04. Funeral Song For A Dog (3:54)
Код:
Код:
Exact Audio Copy V0.99 prebeta 4 from 23. January 2008

EAC extraction logfile from 5. May 2009, 19:10

Shivaree / Bossa Nova (The Luckiest Girl)

Used drive  : PLEXTOR CD-R   PREMIUM   Adapter: 0  ID: 0

Read mode               : Secure
Utilize accurate stream : Yes
Defeat audio cache      : Yes
Make use of C2 pointers : No

Read offset correction                      : 30
Overread into Lead-In and Lead-Out          : Yes
Fill up missing offset samples with silence : Yes
Delete leading and trailing silent blocks   : No
Null samples used in CRC calculations       : Yes
Used interface                              : Native Win32 interface for Win NT & 2000
Gap handling                                : Appended to previous track

Used output format              : User Defined Encoder
Selected bitrate                : 320 kBit/s
Quality                         : High
Add ID3 tag                     : No
Command line compressor         : C:\Program Files\Exact Audio Copy\Flac\flac.exe
Additional command line options : -V -8 -T "artist=%a" -T "title=%t" -T "album=%g" -T "date=%y" -T "tracknumber=%n" -T "genre=%m" %s

TOC of the extracted CD

     Track |   Start  |  Length  | Start sector | End sector
    ---------------------------------------------------------
        1  |  0:00.00 |  3:34.02 |         0    |    16051
        2  |  3:34.02 |  3:41.25 |     16052    |    32651
        3  |  7:15.27 |  4:27.38 |     32652    |    52714
        4  | 11:42.65 |  3:53.52 |     52715    |    70241

Track  1

     Filename C:\EACRips\01 Bossa Nova (The Luckiest Girl) (Allskate Mix).wav

     Pre-gap length  0:00:02.00

     Peak level 99.9 %
     Track quality 100.0 %
     Test CRC B2953BEB
     Copy CRC B2953BEB
     Accurately ripped (confidence 1)  [FD452F47]
     Copy OK

Track  2

     Filename C:\EACRips\02 Bossa Nova (The Luckiest Girl) (Album Edit).wav

     Pre-gap length  0:00:02.60

     Peak level 100.0 %
     Track quality 100.0 %
     Test CRC 3840A312
     Copy CRC 3840A312
     Accurately ripped (confidence 1)  [3096DF06]
     Copy OK

Track  3

     Filename C:\EACRips\03 I Don't Care (Live).wav

     Pre-gap length  0:00:01.25

     Peak level 99.8 %
     Track quality 100.0 %
     Test CRC D9DAEF17
     Copy CRC D9DAEF17
     Accurately ripped (confidence 1)  [3C0CDE94]
     Copy OK

Track  4

     Filename C:\EACRips\04 Funeral Song For A Dog.wav

     Pre-gap length  0:00:02.60

     Peak level 99.8 %
     Track quality 100.0 %
     Test CRC DA1D118D
     Copy CRC DA1D118D
     Accurately ripped (confidence 1)  [93ED5356]
     Copy OK

All tracks accurately ripped

No errors occurred

End of status report
AUDIOCHECKER v2.0 beta (build 457) - by Dester -
~~~~~~~~~~~~~~~~~~~~~~~~~~~~~~~~~~
-=== НЕ РЕДАКТИРУЙТЕ ЭТОТ ФАЙЛ! ===-

Путь: ...\1999. Bossa Nova (The Luckiest Girl)

1 -=- 01 Bossa Nova (The Luckiest Girl) (Allskate Mix).flac -=- CDDA (100%)
2 -=- 02 Bossa Nova (The Luckiest Girl) (Album Edit).flac -=- CDDA (100%)
3 -=- 03 I Don't Care (Live).flac -=- CDDA (100%)
4 -=- 04 Funeral Song For A Dog.flac -=- CDDA (100%)

Сводка 100,00% CDDA

191991172
#777Продолжительность: 00:12:26

Треклист:

01. Goodnight Moon (4:05)
02. Scrub (5:51)
03. My Boy Lollypop (02:30)
Код:
Код:
Exact Audio Copy V0.99 prebeta 4 from 23. January 2008

Отчёт EAC об извлечении, выполненном 8. мая 2008, 17:53

Shivaree / Goodnight Moon (Single)

Дисковод: HP      DVD Writer 840e   Adapter: 8  ID: 0

Режим чтения                 : Достоверность
Использование точного потока : Да
Отключение кэша аудио        : Да
Использование указателей C2  : Нет

Коррекция смещения при чтении                     : 102
Способность читать области Lead-in и Lead-out     : Нет
Заполнение пропущенных сэмплов тишиной            : Да
Удаление блоков с тишиной в начале и конце        : Нет
При вычислениях CRC использовались нулевые сэмплы : Нет
Интерфейс                                         : Встроенный Win32-интерфейс для Win NT/2000

Выходной формат : Внутренние WAV-операции
Формат сэмплов  : 44.100 Гц; 16 бит; стерео

TOC извлечённого CD

     Трек |   Старт  | Длительность | Начальный сектор | Конечный сектор
    ---------------------------------------------------------------------
       1  |  0:00.00 |    4:05.32   |           0      |      18406
       2  |  4:05.32 |    5:50.65   |       18407      |      44721
       3  |  9:56.22 |    2:30.35   |       44722      |      56006

Характеристики диапазона извлечения и сообщения об ошибках

Выбранный диапазон

     Имя файла E:\EAC rips\Shivaree - Goodnight Moon (Single)\Shivaree - Goodnight Moon (Single).wav

     Пиковый уровень 98.8 %
     Качество диапазона 100.0 %
     CRC копии 18CF99AC
     Копирование... OK

Ошибок не произошло

AccurateRip: сводка

Трек  1  точное извлечение (доверие 2)  [08A569F1]
Трек  2  точность не определена (достоверность 2)  [7A76F87C], AccurateRip вернул [C0DF2E4C]
Трек  3  точность не определена (достоверность 2)  [BC73D74C], AccurateRip вернул [46617A98]

 1 трек(и) скопированы точно
 2 трек(и) не удалось проверить на точность

Некоторые треки не прошли проверку на точность

Конец отчёта
AUDIOCHECKER v2.0 beta (build 457) - by Dester -
~~~~~~~~~~~~~~~~~~~~~~~~~~~~~~~~~~
-=== НЕ РЕДАКТИРУЙТЕ ЭТОТ ФАЙЛ! ===-

Путь: ...\1999. Goodnight Moon

1 -=- Shivaree - Goodnight Moon (Single).ape -=- CDDA (100%)

245545940
загрузка...
Правила, инструкции, FAQ!!!
Торрент  Добавлен [27 фев 2014, 11:43] Скачать торрент
Скачать торрент
[ Размер 25.19 КБ / Просмотров 33 ]

Статус  
 
Размер  1.33 ГБ
Приватный: Нет (DHT включён)
.torrent скачан  0
Как залить торрент? | Как скачать Torrent? | Как смотреть и слушать онлайн?  


     Отправить личное сообщение
   
Страница 1 из 1
Показать сообщения за:  Поле сортировки  
Начать новую тему Ответить на тему

   Похожие торренты   Автор   Ответы   Просмотры   Последнее сообщение 
В этой теме нет новых непрочитанных сообщений. Скачать торрент Проверен (Indie, Rock, Alternative) AZE - Дискография, 5 альбомов - 1999-2008, MP3, 192-320 kbps

в форуме Русский Рок, Размер: 410.05 МБ, Здоровье: 100%

Anonymous

0
1|0

15
1

21 авг 2016, 13:47

Anonymous Перейти к последнему сообщению

В этой теме нет новых непрочитанных сообщений. Скачать торрент Проверен (Alternative, Indie, Folk) Глубина (Авсень, Кельт) - Дискография 6CD - 1999-2009, MP3, 320

в форуме Русский Рок, Размер: 740.78 МБ, Здоровье: 100%

Anonymous

0
1|0

2
0

23 авг 2016, 09:29

Anonymous Перейти к последнему сообщению

В этой теме нет новых непрочитанных сообщений. Скачать торрент Madrugada - 6 альбомов (1999 - 2010) [FLAC|APE|Lossless]<Indie, Alternative, Art Rock>

в форуме Рок, Панк, Метал, Альтернатива, Размер: 3.38 ГБ, Здоровье: ???%

Anonymous

0
0|73

343
0

16 мар 2014, 00:56

Anonymous Перейти к последнему сообщению

В этой теме нет новых непрочитанных сообщений. Скачать торрент Проверен (indie rock, alternative) [LP][24/96] The Flaming Lips - The Soft Bulletin - 1999, FLAC (tracks), lossless

в форуме Зарубежный рок (оцифровки), Размер: 500.09 МБ, Здоровье: 0%

Anonymous

0
0|0

0
0

25 авг 2016, 19:40

Anonymous Перейти к последнему сообщению

В этой теме нет новых непрочитанных сообщений. Скачать торрент Проверен (Adult Alternative Pop/Rock, Alternative/Indie Rock)[LP] [24/96] Crowded House - Time On Earth - 2007, FLAC (tracks) (2LP)

в форуме Зарубежный рок (оцифровки), Размер: 1.26 ГБ, Здоровье: 0%

Anonymous

0
0|0

4
0

24 авг 2016, 17:19

Anonymous Перейти к последнему сообщению



Сейчас этот форум просматривают: нет зарегистрированных пользователей и гости: 1


Вы не можете начинать темы
Вы не можете отвечать на сообщения
Вы не можете редактировать свои сообщения
Вы не можете удалять свои сообщения
Вы не можете добавлять вложения

Перейти:  

!ВНИМАНИЕ!
 Ресурс не предоставляет электронные версии произведений, а занимается лишь коллекционированием и каталогизацией ссылок, присылаемых и публикуемых на форуме нашими читателями. Если вы являетесь правообладателем какого-либо представленного материала и не желаете чтобы ссылка на него находилась в нашем каталоге, свяжитесь с нами и мы незамедлительно удалим её. Файлы для обмена на трекере предоставлены пользователями сайта, и администрация не несёт ответственности за их содержание. Просьба не заливать файлы, защищенные авторскими правами, а также файлы нелегального содержания!