На всех торрентах на трекере установлена скидка на скачивание в размере 100 процентов(а).
 Возможность скачивания торрента НЕ зависит от ограничений при низком ратио, низком аплоаде, требуемом ратио или требуемом аплоаде.


Начать новую тему Ответить на тему
Статистика раздачи
Размер: 11.02 ГБ | Добавлен: 16 дек 2013, 12:59 | Скачали: 1
Сидеров: 0  [0 байт/сек]    Личеров: 1  [0 байт/сек]
Пред. тема | След. тема 

Автор
Сообщение

СообщениеДобавлено: 16 дек 2013, 12:59 

Зовите меня Фитц / Call Me Fitz (2012) BDRip (Сезон 3, серии 1-12 из 12) Amedia


Год выпуска: 2012
Жанр: Комедия

Перевод: Многоголосый закадровый, профессиональный
Язык: русский
Озвучка / Автор перевода: Даб Лаб по заказу Amedia
Вид субтитров: Вшитые отключаемые
Язык субтитров: English

Релиз группа: CasStudio


Режиссер: Скотт Смит, Джеймс Дженн, Джейсон Пристли.
Актеры: Джейсон Пристли, Эрни Грюнвальд, Питер Макнэйл, Кэтрин Монро, Донован Стинсон, Брук Невин и др.

Описание фильма:
Его зовут Ричард Фитцпатрик. Он - самый сексуальный продавец поддержанных автомобилей в городе. В жизни Ричарда есть только один человек, которого он любит - это он сам. Ему плевать на всех, ему нравится жить только для себя, и свою жизнь менять он не собирается.

Продолжительность: 00:28:00
Качество видео: WEB-DL
Сэмпл: Скачать

Качество : WEB-DL 720p
Формат : MKV
Видео : AVC, 1280x718, 23.976 fps, 4200 Kbps, 0.186 bit/pixel
Аудио #1 : AC3, 48 KHz, 2 ch, 192 Kbps — Русский
Аудио #2 : AC3, 48 KHz, 6 ch, 384 Kbps — Английский
Формат : Matroska
Версия формата : Version 4 / Version 2
Размер файла : 989 Мбайт
Продолжительность : 29 м.
Общий поток : 4762 Кбит/сек
Дата кодирования : UTC 2013-08-26 12:12:02
Программа кодирования : mkvmerge v6.3.0 ('You can't stop me!') built on Jun 28 2013 20:09:41
Библиотека кодирования : libebml v1.3.0 + libmatroska v1.4.0

Видео
Идентификатор : 1
Формат : AVC
Формат/Информация : Advanced Video Codec
Профиль формата :
Параметр CABAC формата : Нет
Параметр ReFrames формата : 2 кадра
Идентификатор кодека : V_MPEG4/ISO/AVC
Продолжительность : 29 м.
Битрейт : 4091 Кбит/сек
Ширина : 1280 пикселей
Высота : 718 пикселей
Соотношение сторон : 16:9
Режим частоты кадров : Постоянный
Частота кадров : 23,976 кадра/сек
Цветовое пространство : YUV
Субдискретизация насыщенности : 4:2:0
Битовая глубина : 8 бит
Тип развёртки : Прогрессивная
Бит/(Пиксели*Кадры) : 0.186
Размер потока : 850 Мбайт (86%)
Язык : English
Default : Да
Forced : Нет
Основные цвета : BT.709
Характеристики трансфера : BT.709
Коэффициенты матрицы : BT.709

Аудио #1
Идентификатор : 2
Формат : AC-3
Формат/Информация : Audio Coding 3
Расширение режима : CM (complete main)
Параметр Endianness формата : Big
Идентификатор кодека : A_AC3
Продолжительность : 29 м.
Вид битрейта : Постоянный
Битрейт : 192 Кбит/сек
Каналы : 2 канала
Расположение каналов : Front: L R
Частота : 48,0 КГц
Битовая глубина : 16 бит
Метод сжатия : С потерями
Размер потока : 39,9 Мбайт (4%)
Язык : Russian
Default : Да
Forced : Нет

Аудио #2
Идентификатор : 3
Формат : AC-3
Формат/Информация : Audio Coding 3
Расширение режима : CM (complete main)
Параметр Endianness формата : Big
Идентификатор кодека : A_AC3
Продолжительность : 29 м.
Вид битрейта : Постоянный
Битрейт : 384 Кбит/сек
Каналы : 6 каналов
Расположение каналов : Front: L C R, Side: L R, LFE
Частота : 48,0 КГц
Битовая глубина : 16 бит
Метод сжатия : С потерями
Размер потока : 79,8 Мбайт (8%)
Язык : English
Default : Нет
Forced : Нет

Текст
Идентификатор : 4
Формат : UTF-8
Идентификатор кодека : S_TEXT/UTF8
Идентификатор кодека/Информация : UTF-8 Plain Text
Язык : English
Default : Нет
Forced : Нет
Работа со звуком : 13napas
Роли озвучивали : Наталья Колодяжная, Сергей Чихачев, Антон Эльдаров, Василиса Воронина, Рамиля Искандер, Василий Зотов, Андрей Соколов.
Автор перевода : Али Махмудов, Олег Папулов
Скриншоты:
загрузка...
Правила, инструкции, FAQ!!!
Торрент  Добавлен [16 дек 2013, 12:59] Скачать торрент
Скачать торрент
[ Размер 29.53 КБ / Просмотров 10 ]

Статус  
 
Размер  11.02 ГБ
Приватный: Нет (DHT включён)
.torrent скачан  1
Как залить торрент? | Как скачать Torrent? | Как смотреть и слушать онлайн?  


     Отправить личное сообщение
   
Страница 1 из 1
Показать сообщения за:  Поле сортировки  
Начать новую тему Ответить на тему

   Похожие торренты   Автор   Ответы   Просмотры   Последнее сообщение 
В этой теме нет новых непрочитанных сообщений. Скачать торрент Зовите меня Фитц / Call Me Fitz (2011) BDRip (Сезон 1, серии 1-13 из 13) Amedia

в форуме Зарубежные сериалы, Размер: 15.03 ГБ, Здоровье: 100%

Anonymous

0
4|1

128
1

16 дек 2013, 12:50

Anonymous Перейти к последнему сообщению

В этой теме нет новых непрочитанных сообщений. Скачать торрент Зовите меня Фитц / Call Me Fitz (2011) BDRip (Сезон 2, серии 1-13 из 13) Amedia

в форуме Зарубежные сериалы, Размер: 6.59 ГБ, Здоровье: 10%

Anonymous

0
2|19

132
3

16 дек 2013, 12:35

Anonymous Перейти к последнему сообщению

В этой теме нет новых непрочитанных сообщений. Скачать торрент Проверен Власть в ночном городе / Power (2014) WEB-DL [H.264/720p-LQ] (сезон 1, серии 1-8 из 8) Amedia

в форуме Зарубежные сериалы, Размер: 15.43 ГБ, Здоровье: 100%

Гость

0
53|5

162
1

17 авг 2015, 18:53

Гость Перейти к последнему сообщению

В этой теме нет новых непрочитанных сообщений. Скачать торрент Проверен Покойо / Pocoyo (2005-2009) SATRip (1 сезон: 1-52 серии, 2 сезон: 1- 52 серии из 104) [Обновляемая]

в форуме Развивающее Видео для детей, Размер: 9.33 ГБ, Здоровье: 100%

Гость

0
218|169

537
14

01 дек 2015, 00:15

Гость Перейти к последнему сообщению

В этой теме нет новых непрочитанных сообщений. Скачать торрент Правительство (Borgen) / Сезон 2, Серии 1-8 из 10 (BaibaKo) (2011) [MP4|720x320] <BDRip H.264>

в форуме Видео для смартфонов и КПК, Размер: 6.2 ГБ, Здоровье: 0%

Anonymous

0
0|0

38
0

21 апр 2014, 22:28

Anonymous Перейти к последнему сообщению



Сейчас этот форум просматривают: нет зарегистрированных пользователей и гости: 1


Вы не можете начинать темы
Вы не можете отвечать на сообщения
Вы не можете редактировать свои сообщения
Вы не можете удалять свои сообщения
Вы не можете добавлять вложения

Перейти:  

!ВНИМАНИЕ!
 Ресурс не предоставляет электронные версии произведений, а занимается лишь коллекционированием и каталогизацией ссылок, присылаемых и публикуемых на форуме нашими читателями. Если вы являетесь правообладателем какого-либо представленного материала и не желаете чтобы ссылка на него находилась в нашем каталоге, свяжитесь с нами и мы незамедлительно удалим её. Файлы для обмена на трекере предоставлены пользователями сайта, и администрация не несёт ответственности за их содержание. Просьба не заливать файлы, защищенные авторскими правами, а также файлы нелегального содержания!