На всех торрентах на трекере установлена скидка на скачивание в размере 100 процентов(а).
 Возможность скачивания торрента НЕ зависит от ограничений при низком ратио, низком аплоаде, требуемом ратио или требуемом аплоаде.


Начать новую тему Ответить на тему
Статистика раздачи
Размер: 6.59 ГБ | Добавлен: 16 дек 2013, 12:35 | Скачали: 3
Сидеров: 2  [0 байт/сек]    Личеров: 19  [0 байт/сек]
Пред. тема | След. тема 

Автор
Сообщение

СообщениеДобавлено: 16 дек 2013, 12:35 

Зовите меня Фитц / Call Me Fitz (2011) BDRip (Сезон 2, серии 1-13 из 13) Amedia



Год выпуска: 2011
Жанр: Комедия
Перевод: Многоголосый закадровый, профессиональный
Язык: русский
Озвучка / Автор перевода: Даб Лаб по заказу Amedia
Язык субтитров: нет

Релиз группа: CasStudio



Режиссер: Скотт Смит, Джеймс Дженн, Джейсон Пристли.
Актеры: Джейсон Пристли, Эрни Грюнвальд, Питер Макнэйл, Кэтрин Монро, Донован Стинсон, Брук Невин и др.

Описание фильма:
Его зовут Ричард Фитцпатрик. Он - самый сексуальный продавец поддержанных автомобилей в городе. В жизни Ричарда есть только один человек, которого он любит - это он сам. Ему плевать на всех, ему нравится жить только для себя, и свою жизнь менять он не собирается.

Продолжительность: 00:28:00
Качество видео: HDTVRip
Сэмпл: Скачать
Качество : HDTVRip 720p
Формат : MKV
Видео : AVC, 1280x720, 23.976 fps, ~2400 Kbps, 0.109 bit/pixel
Аудио #1 : AC3, 48 KHz, 2 ch, 192 Kbps — Русский
Аудио #2 : AC3, 48 KHz, 6 ch, 384 Kbps — Английский
Формат : Matroska
Версия формата : Version 4 / Version 2
Размер файла : 460 Мбайт
Продолжительность : 24 м.
Общий поток : 2617 Кбит/сек
Дата кодирования : UTC 2013-08-17 13:36:52
Программа кодирования : mkvmerge v6.3.0 ('You can't stop me!') built on Jun 28 2013 20:09:41
Библиотека кодирования : libebml v1.3.0 + libmatroska v1.4.0

Видео
Идентификатор : 1
Формат : AVC
Формат/Информация : Advanced Video Codec
Профиль формата :
Параметр CABAC формата : Да
Параметр ReFrames формата : 5 кадров
Идентификатор кодека : V_MPEG4/ISO/AVC
Продолжительность : 24 м.
Битрейт : 1989 Кбит/сек
Ширина : 1280 пикселей
Высота : 720 пикселей
Соотношение сторон : 16:9
Режим частоты кадров : Постоянный
Частота кадров : 23,976 кадра/сек
Цветовое пространство : YUV
Субдискретизация насыщенности : 4:2:0
Битовая глубина : 8 бит
Тип развёртки : Прогрессивная
Бит/(Пиксели*Кадры) : 0.090
Размер потока : 349 Мбайт (76%)
Библиотека кодирования : x264 core 119 r2106 07efeb4
Настройки программы : cabac=1 / ref=5 / deblock=1:0:0 / analyse=0x3:0x113 / me=umh / subme=8 / psy=1 / psy_rd=1.00:0.00 / mixed_ref=1 / me_range=16 / chroma_me=1 / trellis=1 / 8x8dct=1 / cqm=0 / deadzone=21,11 / fast_pskip=1 / chroma_qp_offset=-2 / threads=12 / sliced_threads=0 / nr=0 / decimate=1 / interlaced=0 / bluray_compat=0 / constrained_intra=0 / bframes=3 / b_pyramid=2 / b_adapt=2 / b_bias=0 / direct=3 / weightb=1 / open_gop=0 / weightp=2 / keyint=250 / keyint_min=23 / scenecut=40 / intra_refresh=0 / rc_lookahead=50 / rc=crf / mbtree=1 / crf=19.0 / qcomp=0.60 / qpmin=0 / qpmax=69 / qpstep=4 / ip_ratio=1.40 / aq=1:1.00
Язык : English
Default : Да
Forced : Нет

Аудио #1
Идентификатор : 2
Формат : AC-3
Формат/Информация : Audio Coding 3
Расширение режима : CM (complete main)
Параметр Endianness формата : Big
Идентификатор кодека : A_AC3
Продолжительность : 24 м.
Вид битрейта : Постоянный
Битрейт : 192 Кбит/сек
Каналы : 2 канала
Расположение каналов : Front: L R
Частота : 48,0 КГц
Битовая глубина : 16 бит
Метод сжатия : С потерями
Размер потока : 33,7 Мбайт (7%)
Язык : Russian
Default : Да
Forced : Нет

Аудио #2
Идентификатор : 3
Формат : AC-3
Формат/Информация : Audio Coding 3
Расширение режима : CM (complete main)
Параметр Endianness формата : Big
Идентификатор кодека : A_AC3
Продолжительность : 24 м.
Вид битрейта : Постоянный
Битрейт : 384 Кбит/сек
Каналы : 6 каналов
Расположение каналов : Front: L C R, Side: L R, LFE
Частота : 48,0 КГц
Битовая глубина : 16 бит
Метод сжатия : С потерями
Размер потока : 67,5 Мбайт (15%)
Язык : English
Default : Нет
Forced : Нет
Работа со звуком : 13napas
Роли озвучивали : Наталья Колодяжная, Сергей Чихачев, Антон Эльдаров, Василиса Воронина, Рамиля Искандер, Василий Зотов, Андрей Соколов.
Автор перевода : Али Махмудов, Олег Папулов
Скриншоты:
загрузка...
Правила, инструкции, FAQ!!!
Торрент  Добавлен [16 дек 2013, 12:35] Скачать торрент
Скачать торрент
[ Размер 18.52 КБ / Просмотров 28 ]

Статус  
 
Размер  6.59 ГБ
Приватный: Нет (DHT включён)
.torrent скачан  3
Как залить торрент? | Как скачать Torrent? | Как смотреть и слушать онлайн?  


     Отправить личное сообщение
   
Страница 1 из 1
Показать сообщения за:  Поле сортировки  
Начать новую тему Ответить на тему

   Похожие торренты   Автор   Ответы   Просмотры   Последнее сообщение 
В этой теме нет новых непрочитанных сообщений. Скачать торрент Зовите меня Фитц / Call Me Fitz (2011) BDRip (Сезон 1, серии 1-13 из 13) Amedia

в форуме Зарубежные сериалы, Размер: 15.03 ГБ, Здоровье: 100%

Anonymous

0
4|1

128
1

16 дек 2013, 12:50

Anonymous Перейти к последнему сообщению

В этой теме нет новых непрочитанных сообщений. Скачать торрент Зовите меня Фитц / Call Me Fitz (2012) BDRip (Сезон 3, серии 1-12 из 12) Amedia

в форуме Зарубежные сериалы, Размер: 11.02 ГБ, Здоровье: ???%

Anonymous

0
0|1

71
1

16 дек 2013, 12:59

Anonymous Перейти к последнему сообщению

В этой теме нет новых непрочитанных сообщений. Скачать торрент Проверен Власть в ночном городе / Power (2014) WEB-DL [H.264/720p-LQ] (сезон 1, серии 1-8 из 8) Amedia

в форуме Зарубежные сериалы, Размер: 15.43 ГБ, Здоровье: 100%

Гость

0
53|5

162
1

17 авг 2015, 18:53

Гость Перейти к последнему сообщению

В этой теме нет новых непрочитанных сообщений. Скачать торрент Правительство (Borgen) / Сезон 2, Серии 1-8 из 10 (BaibaKo) (2011) [MP4|720x320] <BDRip H.264>

в форуме Видео для смартфонов и КПК, Размер: 6.2 ГБ, Здоровье: 0%

Anonymous

0
0|0

38
0

21 апр 2014, 22:28

Anonymous Перейти к последнему сообщению

В этой теме нет новых непрочитанных сообщений. Скачать торрент Проверен Покойо / Pocoyo (2005-2009) SATRip (1 сезон: 1-52 серии, 2 сезон: 1- 52 серии из 104) [Обновляемая]

в форуме Развивающее Видео для детей, Размер: 9.33 ГБ, Здоровье: 100%

Гость

0
218|169

537
14

01 дек 2015, 00:15

Гость Перейти к последнему сообщению



Сейчас этот форум просматривают: нет зарегистрированных пользователей и гости: 1


Вы не можете начинать темы
Вы не можете отвечать на сообщения
Вы не можете редактировать свои сообщения
Вы не можете удалять свои сообщения
Вы не можете добавлять вложения

Перейти:  

!ВНИМАНИЕ!
 Ресурс не предоставляет электронные версии произведений, а занимается лишь коллекционированием и каталогизацией ссылок, присылаемых и публикуемых на форуме нашими читателями. Если вы являетесь правообладателем какого-либо представленного материала и не желаете чтобы ссылка на него находилась в нашем каталоге, свяжитесь с нами и мы незамедлительно удалим её. Файлы для обмена на трекере предоставлены пользователями сайта, и администрация не несёт ответственности за их содержание. Просьба не заливать файлы, защищенные авторскими правами, а также файлы нелегального содержания!