На всех торрентах на трекере установлена скидка на скачивание в размере 100 процентов(а).
 Возможность скачивания торрента НЕ зависит от ограничений при низком ратио, низком аплоаде, требуемом ратио или требуемом аплоаде.


Начать новую тему Ответить на тему
Статистика раздачи
Размер: 16.41 ГБ | Добавлен: 05 дек 2013, 14:50 | Скачали: 11
Сидеров: 3  [0 байт/сек]    Личеров: 3  [0 байт/сек]
Пред. тема | След. тема 

Автор
Сообщение

СообщениеДобавлено: 05 дек 2013, 14:50 

Страна: Россия
Производство: Кинокомпания DiXI TV
Жанр: Детектив
Год выпуска: 2012

Продолжительность: 12 х ~ 01:30:00

Язык: Русский

Режиссер: Юрий Попович
В ролях: Елена Морозова, Дмитрий Щербина, Анатолий Гущин, Денис Бондарков, Галина Коньшина, Ангелина Коршунова, Оксана Семёнова, Андрей Лебедев, Николай Дроздовский, Эдуард Рябинин, Венчислав Хотяновский, Анатолий Отраднов, Александр Печенин, Антон Ушаков, Юлия Кокрятская, Евгений Сафронов, Максим Щёголев, Елена Кукушкина



Описание: Прообразами трех главных героев стали три следователя Главного Следственного Управления Следственного Комитета РФ. Все они - люди высоких званий и действительно гении своего дела. Все дела, используемые в сериале - реальные, по которым найдены и осуждены виновные.

Исходник: DVD9 R5

Тип релиза: DVDRip

Контейнер: AVI
Видео: 704x384 (1.83:1), 23.976 fps, XviD ~1942 kbps avg, 0.30 bit/pixel
Аудио: 48 kHz, AC3 Dolby Digital, 2.0 ~192.00 kbps avg
Общее
Полное имя : D:1АААСК1 серия.avi
Формат : AVI
Формат/Информация : Audio Video Interleave
Размер файла : 1,37 Гбайт
Продолжительность : 1 ч. 31 м.
Общий поток : 2144 Кбит/сек
Программа кодирования : VirtualDubMod 1.5.10.3 | http://www.virtualdub-fr.org || (build 2550/release)
Библиотека кодирования : VirtualDubMod build 2550/release

Видео
Идентификатор : 0
Формат : MPEG-4 Visual
Профиль формата : Advanced Simple@L5
Параметр BVOP формата : 2
Параметр QPel формата : Нет
Параметр GMC формата : Без точки перехода
Параметр матрицы формата : Default (MPEG)
Режим смешивания : Сжатый битовый поток
Идентификатор кодека : XVID
Идентификатор кодека/Подсказка : XviD
Продолжительность : 1 ч. 31 м.
Битрейт : 1943 Кбит/сек
Ширина : 704 пикселя
Высота : 384 пикселя
Соотношение сторон : 1,85:1
Частота кадров : 23,976 кадра/сек
Цветовое пространство : YUV
Субдискретизация насыщенности : 4:2:0
Битовая глубина : 8 бит
Тип развёртки : Прогрессивная
Метод сжатия : С потерями
Бит/(Пиксели*Кадры) : 0.300
Размер потока : 1,24 Гбайт (91%)
Библиотека кодирования : XviD 1.2.1 (UTC 2008-12-04)

Аудио
Идентификатор : 1
Формат : AC-3
Формат/Информация : Audio Coding 3
Расширение режима : CM (complete main)
Параметр Endianness формата : Big
Идентификатор кодека : 2000
Продолжительность : 1 ч. 31 м.
Вид битрейта : Постоянный
Битрейт : 192 Кбит/сек
Каналы : 2 канала
Расположение каналов : Front: L R
Частота : 48,0 КГц
Битовая глубина : 16 бит
Метод сжатия : С потерями
Размер потока : 125 Мбайт (9%)
Выравнивание : Разделение по промежуткам
Продолжительность промежутка : 42 мс. (1,00 видеокадр)
Время предзагрузки промежутка : 500 мс.





Релиз группа:

Автор рипа:
загрузка...
Правила, инструкции, FAQ!!!
Торрент  Добавлен [05 дек 2013, 14:50] Скачать торрент
Скачать торрент
[ Размер 83.15 КБ / Просмотров 10 ]

Статус  
 
Размер  16.41 ГБ
Приватный: Нет (DHT включён)
.torrent скачан  11
Как залить торрент? | Как скачать Torrent? | Как смотреть и слушать онлайн?  


     Отправить личное сообщение
   
Страница 1 из 1
Показать сообщения за:  Поле сортировки  
Начать новую тему Ответить на тему

   Похожие торренты   Автор   Ответы   Просмотры   Последнее сообщение 
В этой теме нет новых непрочитанных сообщений. Скачать торрент Проверен (Psychedelic Rock) Народный Комитет, Родом Из Детства - Дискография (16 альбомов), 2004-2016, MP3, 128-320 kbps

в форуме Русский Рок, Размер: 751.93 МБ, Здоровье: ???%

Anonymous

0
0|1

7
0

23 авг 2016, 09:28

Anonymous Перейти к последнему сообщению

В этой теме нет новых непрочитанных сообщений. Скачать торрент Проверен (Rock) VA - Индюки. Фестивать независимой музыки [LP] (Восточный синдром, Ник Рок-Н-Ролл, Комитет охраны тепла, До-мажор, А. Лаэртский, Миссия: Антициклон, НТО рецепт) - 1992, MP3, V0

в форуме Русский Рок, Размер: 74.88 МБ, Здоровье: 0%

Anonymous

0
0|0

0
0

22 авг 2016, 01:53

Anonymous Перейти к последнему сообщению

В этой теме нет новых непрочитанных сообщений. Скачать торрент Проверен (Psychedelic Rock) Народный Комитет "Аквариум Лопнул!" (CD-версия) - 2008, MP3 (tracks), 320 kbps

в форуме Русский Рок, Размер: 108.61 МБ, Здоровье: 0%

Anonymous

0
0|0

6
0

21 авг 2016, 13:20

Anonymous Перейти к последнему сообщению

В этой теме нет новых непрочитанных сообщений. Скачать торрент Проверен (Hard Rock) Black Sabbath - Live at Lollapalooza, (Chicago, 03.08.2012) (Bootleg) - 2012 (DVDRip), MP3, 320 kbps

в форуме Classic Rock & Hard Rock, Размер: 233.37 МБ, Здоровье: 100%

Anonymous

0
1|0

0
0

13 ноя 2016, 22:01

Anonymous Перейти к последнему сообщению

В этой теме нет новых непрочитанных сообщений. Скачать торрент Проверен [PSP] 2012 / 2012 (2009) DVDRip

в форуме Видео для смартфонов и КПК, Размер: 838.9 МБ, Здоровье: 100%

Anonymous

0
1|1

49
0

25 окт 2014, 23:16

Anonymous Перейти к последнему сообщению



Сейчас этот форум просматривают: нет зарегистрированных пользователей и гости: 1


Вы не можете начинать темы
Вы не можете отвечать на сообщения
Вы не можете редактировать свои сообщения
Вы не можете удалять свои сообщения
Вы не можете добавлять вложения

Перейти:  

!ВНИМАНИЕ!
 Ресурс не предоставляет электронные версии произведений, а занимается лишь коллекционированием и каталогизацией ссылок, присылаемых и публикуемых на форуме нашими читателями. Если вы являетесь правообладателем какого-либо представленного материала и не желаете чтобы ссылка на него находилась в нашем каталоге, свяжитесь с нами и мы незамедлительно удалим её. Файлы для обмена на трекере предоставлены пользователями сайта, и администрация не несёт ответственности за их содержание. Просьба не заливать файлы, защищенные авторскими правами, а также файлы нелегального содержания!