На всех торрентах на трекере установлена скидка на скачивание в размере 100 процентов(а).
 Возможность скачивания торрента НЕ зависит от ограничений при низком ратио, низком аплоаде, требуемом ратио или требуемом аплоаде.


Начать новую тему Ответить на тему
Статистика раздачи
Размер: 4.82 ГБ | Добавлен: 01 ноя 2013, 10:41 | Скачали: 0
Сидеров: 0  [0 байт/сек]    Личеров: 1  [0 байт/сек]
Пред. тема | След. тема 

Автор
Сообщение

СообщениеДобавлено: 01 ноя 2013, 10:41 

Достоинство Бергера / Тяжелые Времена ЭрДжей Бергера / The Hard Times of RJ Berger (Сезон 1-2, полные) (2010) WEB-DLRip [MTV]

Русское название: Достоинство Бергера / Тяжелые Времена ЭрДжей Бергера
Оригинальное название: The Hard Times of RJ Berger
Год выпуска: 2010
Жанр: Комедия

Перевод: Многоголосый закадровый, профессиональный (Телеканал MTV)
Релиз Группа: NewStudio



Режиссер: Дэвид Катценберг
Актеры: Пол Яконо, Джареб Доплес , Кара Таитз , Эмбер Ланкастер , Джэйсон Блэр

Описание фильма:
Рассказ об адски-веселых жизнях крайне непопулярного 15-летнего парня RJ Бергера и его лучшего друга Майлса Дженнера, помешанного на сексе. Жизнь RJ лишена каких-либо волнений, если не считать конечно того, что он сохнет по девушке своей мечты Дженни Суонсон, его ежедневно бьет самый злой парень в школе Макс Оуэнс, и ему постоянно приходиться избегать преследования Лили Миран. Однако когда его анатомический дар стал известен на всю школу, RJ превратился в знаменитость, впервые в своей жизни почувствовав небольшую долю уверенности.

Сериал не является ситкомом.
Продолжительность: ~00:21
Качество видео: WEB-DLRip
Сэмпл: Скачать

Видеокодек: Xvid
Битрейт видео: ~1017kbps
Размер кадра: 688x384
Аудиокодек: MP3
Битрейт аудио: 128kbps
Format : AVI
Format/Info : Audio Video Interleave
File size : 188 MiB
Duration : 22mn 48s
Overall bit rate : 1 149 Kbps

Video
ID : 0
Format : MPEG-4 Visual
Format profile : Advanced Simple@L5
Format settings, BVOP : 1
Format settings, QPel : No
Format settings, GMC : No warppoints
Format settings, Matrix : Default (MPEG)
Codec ID : XVID
Codec ID/Hint : XviD
Duration : 22mn 48s
Bit rate : 1 017 Kbps
Width : 688 pixels
Height : 384 pixels
Display aspect ratio : 16:9
Frame rate : 23.976 fps
Color space : YUV
Chroma subsampling : 4:2:0
Bit depth : 8 bits
Scan type : Progressive
Compression mode : Lossy
Bits/(Pixel*Frame) : 0.160
Stream size : 166 MiB (88%)
Writing library : XviD 1.1.2 (UTC 2006-11-01)

Audio
ID : 1
Format : MPEG Audio
Format version : Version 1
Format profile : Layer 3
Mode : Joint stereo
Mode extension : MS Stereo
Codec ID : 55
Codec ID/Hint : MP3
Duration : 22mn 48s
Bit rate mode : Constant
Bit rate : 128 Kbps
Channel(s) : 2 channels
Sampling rate : 48.0 KHz
Compression mode : Lossy
Stream size : 20.9 MiB (11%)
Alignment : Aligned on interleaves
Interleave, duration : 1009 ms (24.20 video frames)
Interleave, preload duration : 216 ms
Title : audio
Writing library : LAME3.97
Encoding settings : -m j -V 4 -q 0 -lowpass 17 -b 128
Скриншоты:
загрузка...
Правила, инструкции, FAQ!!!
Торрент  Добавлен [01 ноя 2013, 10:41] Скачать торрент
Скачать торрент
[ Размер 15.5 КБ / Просмотров 15 ]

Статус  
 
Размер  4.82 ГБ
Приватный: Нет (DHT включён)
.torrent скачан  0
Как залить торрент? | Как скачать Torrent? | Как смотреть и слушать онлайн?  


     Отправить личное сообщение
   
Страница 1 из 1
Показать сообщения за:  Поле сортировки  
Начать новую тему Ответить на тему

   Похожие торренты   Автор   Ответы   Просмотры   Последнее сообщение 
В этой теме нет новых непрочитанных сообщений. Скачать торрент Проверен Климкович Сергей - Тяжелые времена [Китель Михаил, 2014 г., 96 kbps, MP3]

в форуме Детектив и Боевики, Размер: 549.42 МБ, Здоровье: 0%

Anonymous

0
0|0

6
0

04 май 2016, 22:47

Anonymous Перейти к последнему сообщению

В этой теме нет новых непрочитанных сообщений. Скачать торрент Проверен Тяжелые деньги / Трудные деньги / Hard Cash / Run for the Money (2002) WEB-DLRip

в форуме Боевики, Размер: 1.46 ГБ, Здоровье: 0%

Anonymous

0
0|0

41
0

25 сен 2014, 11:37

Anonymous Перейти к последнему сообщению

В этой теме нет новых непрочитанных сообщений. Скачать торрент Викинги (Vikings) / (Сезон 1, полный / Сезон 2, серии 1-8 из 10) BaibaKo (2013-2014) [MP4|640x360] <WEB-DLRip>

в форуме Видео для смартфонов и КПК, Размер: 8.5 ГБ, Здоровье: 0%

Anonymous

0
0|0

180
0

21 апр 2014, 22:28

Anonymous Перейти к последнему сообщению

В этой теме нет новых непрочитанных сообщений. Скачать торрент Проверен Крутые времена / Harsh Times (2005) BDRip 720p

в форуме 720p | 1080p, Размер: 5.37 ГБ, Здоровье: 100%

Anonymous

0
32|4

49
371

20 авг 2014, 16:32

Anonymous Перейти к последнему сообщению

В этой теме нет новых непрочитанных сообщений. Скачать торрент Проверен ТуТиТу / TuTiTu (2010-2012) WEB-DLRip [1080p] (1-4 сезон, 52 серии)

в форуме Развивающее Видео для детей, Размер: 8.73 ГБ, Здоровье: 100%

Гость

0
5|2

45
0

01 дек 2015, 00:04

Гость Перейти к последнему сообщению



Сейчас этот форум просматривают: нет зарегистрированных пользователей и гости: 1


Вы не можете начинать темы
Вы не можете отвечать на сообщения
Вы не можете редактировать свои сообщения
Вы не можете удалять свои сообщения
Вы не можете добавлять вложения

Перейти:  

!ВНИМАНИЕ!
 Ресурс не предоставляет электронные версии произведений, а занимается лишь коллекционированием и каталогизацией ссылок, присылаемых и публикуемых на форуме нашими читателями. Если вы являетесь правообладателем какого-либо представленного материала и не желаете чтобы ссылка на него находилась в нашем каталоге, свяжитесь с нами и мы незамедлительно удалим её. Файлы для обмена на трекере предоставлены пользователями сайта, и администрация не несёт ответственности за их содержание. Просьба не заливать файлы, защищенные авторскими правами, а также файлы нелегального содержания!