На всех торрентах на трекере установлена скидка на скачивание в размере 100 процентов(а).
 Возможность скачивания торрента НЕ зависит от ограничений при низком ратио, низком аплоаде, требуемом ратио или требуемом аплоаде.


Начать новую тему Ответить на тему
Статистика раздачи
Размер: 5.09 ГБ | Добавлен: 28 окт 2013, 10:16 | Скачали: 0
Сидеров: 2  [0 байт/сек]    Личеров: 1  [0 байт/сек]
Пред. тема | След. тема 

Автор
Сообщение

СообщениеДобавлено: 28 окт 2013, 10:16 

Каин. Исключение из правил / Cain (2012) SATRip (Сезон 1, серии 1-8 из 8)

Год выпуска: 2012
Жанр: Детектив, Комедия, Приключения
Выпущено: Франция
Перевод: Многоголосый закадровый, профессиональный
Озвучка : Компания «Игмар» для «Много ТВ»
Релиз от: dj_zum



Режиссер: Бертран Артюа
Актеры: Брюно Дебранд, Жюли Деларм, Фредерик Пэльжэ, Смади Вольфман, Анн Суарес, Ив Верховен, Александр Тибо, Марушка Детмерс

Описание фильма:
Главный герой – полицейский в инвалидном кресле, который более мобильный и быстрый, чем многие люди. Он появляется в тот момент, когда меньше всего ожидаешь, он погружается в самые темные уголки человеческого разума…и он использует свою инвалидность в спорах с законом без малейшего стыда и совести.

Продолжительность: 8 x ~ 00:55:00
Качество видео: SATRip
Сэмпл: Скачать

Видеокодек: Xvid
Битрейт видео: ~1500 Кбит/с
Размер кадра: 720x400
Аудиокодек: AC3
Битрейт аудио: 192 Кбит/с
Формат : AVI
Формат/Информация : Audio Video Interleave
Размер файла : 651 Мбайт
Продолжительность : 54 м.
Общий поток : 1680 Кбит/сек
Программа кодирования : VirtualDubMod 1.5.10.3 | www.virtualdub-fr.org || (build 2550/release)
Библиотека кодирования : VirtualDubMod build 2550/release

Видео
Идентификатор : 0
Формат : MPEG-4 Visual
Профиль формата : Advanced Simple@L5
Параметр BVOP формата : 2
Параметр QPel формата : Нет
Параметр GMC формата : Без точки перехода
Параметр матрицы формата : Выборочная
Идентификатор кодека : XVID
Идентификатор кодека/Подсказка : XviD
Продолжительность : 54 м.
Битрейт : 1478 Кбит/сек
Ширина : 720 пикселей
Высота : 400 пикселей
Соотношение сторон : 16:9
Частота кадров : 25,000 кадров/сек
Цветовое пространство : YUV
Субдискретизация насыщенности : 4:2:0
Битовая глубина : 8 бит
Тип развёртки : Прогрессивная
Метод сжатия : С потерями
Бит/(Пиксели*Кадры) : 0.205
Размер потока : 573 Мбайт (88%)
Библиотека кодирования : XviD 1.2.1 (UTC 2008-12-04)

Аудио
Идентификатор : 1
Формат : AC-3
Формат/Информация : Audio Coding 3
Расширение режима : CM (complete main)
Параметр Endianness формата : Big
Идентификатор кодека : 2000
Продолжительность : 54 м.
Вид битрейта : Постоянный
Битрейт : 192 Кбит/сек
Каналы : 2 канала
Расположение каналов : Front: L R
Частота : 48,0 КГц
Битовая глубина : 16 бит
Метод сжатия : С потерями
Размер потока : 74,4 Мбайт (11%)
Выравнивание : Разделение по промежуткам
Продолжительность промежутка : 40 мс. (1,00 видеокадр)
Время предзагрузки промежутка : 500 мс.


Скриншоты:
загрузка...
Правила, инструкции, FAQ!!!
Торрент  Добавлен [28 окт 2013, 10:16] Скачать торрент
Скачать торрент
[ Размер 26.48 КБ / Просмотров 9 ]

Статус  
 
Размер  5.09 ГБ
Приватный: Нет (DHT включён)
.torrent скачан  0
Как залить торрент? | Как скачать Torrent? | Как смотреть и слушать онлайн?  


     Отправить личное сообщение
   
Страница 1 из 1
Показать сообщения за:  Поле сортировки  
Начать новую тему Ответить на тему

   Похожие торренты   Автор   Ответы   Просмотры   Последнее сообщение 
В этой теме нет новых непрочитанных сообщений. Скачать торрент Проверен Покойо / Pocoyo (2005-2009) SATRip (1 сезон: 1-52 серии, 2 сезон: 1- 52 серии из 104) [Обновляемая]

в форуме Развивающее Видео для детей, Размер: 9.33 ГБ, Здоровье: 100%

Гость

0
218|169

535
14

01 дек 2015, 00:15

Гость Перейти к последнему сообщению

В этой теме нет новых непрочитанных сообщений. Скачать торрент Проверен Почемучка (4 сезон (1-22 серии)) (2012) SATRip

в форуме Развивающее Видео для детей, Размер: 3.88 ГБ, Здоровье: 100%

Гость

0
30|3

53
1

30 ноя 2015, 23:35

Гость Перейти к последнему сообщению

В этой теме нет новых непрочитанных сообщений. Скачать торрент Реальные пацаны / Сезон 3, серии 20 из 20 (2011) [MP4|367x272] <SATRip H.264>

в форуме Видео для смартфонов и КПК, Размер: 1.97 ГБ, Здоровье: 50%

Anonymous

0
2|4

59
0

21 апр 2014, 22:28

Anonymous Перейти к последнему сообщению

В этой теме нет новых непрочитанных сообщений. Скачать торрент Проверен Ава Рико Тео / Ava Riko Teo / Сезон: 1 / Серии: 30 [2007, Обучающий, мультсериал, SATRip, RUS]

в форуме Обучающие издания для детей, Размер: 3.26 ГБ, Здоровье: 100%

Гость

0
5|1

45
0

28 янв 2015, 00:09

Гость Перейти к последнему сообщению

В этой теме нет новых непрочитанных сообщений. Скачать торрент Проверен Зоопарк / Zoomix / Сезон: 1 / Серии: 102 (Уан Линарес) [2008, Мультсериал обучающий, SATRip] VO

в форуме Обучающие издания для детей, Размер: 2.72 ГБ, Здоровье: 100%

Гость

0
46|8

64
2

28 янв 2015, 00:07

Гость Перейти к последнему сообщению



Сейчас этот форум просматривают: нет зарегистрированных пользователей и гости: 1


Вы не можете начинать темы
Вы не можете отвечать на сообщения
Вы не можете редактировать свои сообщения
Вы не можете удалять свои сообщения
Вы не можете добавлять вложения

Перейти:  

!ВНИМАНИЕ!
 Ресурс не предоставляет электронные версии произведений, а занимается лишь коллекционированием и каталогизацией ссылок, присылаемых и публикуемых на форуме нашими читателями. Если вы являетесь правообладателем какого-либо представленного материала и не желаете чтобы ссылка на него находилась в нашем каталоге, свяжитесь с нами и мы незамедлительно удалим её. Файлы для обмена на трекере предоставлены пользователями сайта, и администрация не несёт ответственности за их содержание. Просьба не заливать файлы, защищенные авторскими правами, а также файлы нелегального содержания!