На всех торрентах на трекере установлена скидка на скачивание в размере 100 процентов(а).
 Возможность скачивания торрента НЕ зависит от ограничений при низком ратио, низком аплоаде, требуемом ратио или требуемом аплоаде.


Начать новую тему Ответить на тему
Статистика раздачи
Размер: 597.28 МБ | Добавлен: 08 фев 2013, 14:22 | Скачали: 0
Сидеров: 0  [0 байт/сек]    Личеров: 0  [0 байт/сек]
Пред. тема | След. тема 

Автор
Сообщение

СообщениеДобавлено: 08 фев 2013, 14:22 

Последний час / Zero Hour



Описание: Энтузиаст-издатель журнала о паранормальном «Современный скептик» Хэнк Галлистон потратил свою карьеру, следуя за подсказками, разоблачая мифы и раскрывая заговоры. Признанный помешанным на сверхъестественном, он руководствуется девизом «Логика — это компас». Но когда его красивая жена Лейла похищена из своего магазина антикварных часов, Хэнк втягивается в одну из самых интригующих тайн в истории человечества, охватывающую весь мир и прошлые столетия.

Карта сокровищ спрятана внутри одних из часов его жены, и то, к чему она приведет, может вызвать катастрофические последствия. Теперь Хэнк должен расшифровать символы и раскрыть тайны карты, но так, чтобы ответы не попали в плохие руки — руки человека, которого они называют Белым Винсентом. С двумя юными союзниками Рэйчел и Эрроном, а также привлекательным агентом ФБР Беккой Райли, Хэнк поведет их на захватывающую гонку на время, чтобы найти жену и спасти человечество.

Название: Последний час
Год выпуска: 2013
Жанр: приключения, триллер, драма, детектив
Режиссер: Стивен ДеПол, Билл Джирхарт, Пьер Морель

В фильме снимались: Энтони Эдвардс, Кармен Эджого, Скотт Майкл Фостер, Эддисон Тимлин, Джасинда Бэррет, Микаэл Нюквист, Генри Келемен, Кен Люн, Клаудия МакЛэйн, Амир Арисон




Продолжительность: 01 x ~ 00:42:00
Перевод: Профессиональный (многоголосый, закадровый) - Baibako
Субтитры: нет

Перевод: Светлана Самойленко
Озвучка: Юлия Котурбаш, Елена Григорьева, Олекса Мельник и Александр Фурман
Обложка: Татьяна Saavick




Качество: WEBRip
Формат: AVI
Видео: XviD, ~1550 Кбит/сек, 640x352, 23,976 кадра/сек
Аудио rus: MP3, 2 ch, 48,0 КГц 192 Кбит/сек
Аудио eng: MP3, 2 ch, 48,0 КГц 192 Кбит/сек

01. Пилот


Формат : AVI
Формат/Информация : Audio Video Interleave
Размер файла : 597 Мбайт
Продолжительность : 42 м.
Общий поток : 1981 Кбит/сек
Программа кодирования : VirtualDubMod 1.5.10.2 (build 2542/release)
Библиотека кодирования : VirtualDubMod build 2542/release

Видео
Идентификатор : 0
Формат : MPEG-4 Visual
Профиль формата : Advanced Simple@L5
Параметр BVOP формата : 2
Параметр QPel формата : Нет
Параметр GMC формата : Без точки перехода
Параметр матрицы формата : Default (H.263)
Идентификатор кодека : XVID
Идентификатор кодека/Подсказка : XviD
Продолжительность : 42 м.
Битрейт : 1583 Кбит/сек
Ширина : 640 пикс.
Высота : 352 пикс.
Соотношение сторон : 16:9
Частота кадров : 23,976 кадр/сек
Цветовое пространство : YUV
Подвыборка цветности : 4:2:0
Битовая глубина : 8 бит
Тип развёртки : Прогрессивная
Метод сжатия : С потерями
Бит/(Пиксели*Кадры) : 0.293
Размер потока : 477 Мбайт (80%)
Библиотека кодирования : XviD 1.2.1 (UTC 2008-12-04)

Аудио #1
Идентификатор : 1
Формат : MPEG Audio
Версия формата : Version 1
Профиль формата : Layer 3
Режим : Joint stereo
Расширение режима : MS Stereo
Идентификатор кодека : 55
Идентификатор кодека/Подсказка : MP3
Продолжительность : 42 м.
Вид битрейта : Постоянный
Битрейт : 192 Кбит/сек
Каналы : 2 канала
Частота : 48,0 КГц
Метод сжатия : С потерями
Размер потока : 57,9 Мбайт (10%)
Выравнивание : Разделение по промежуткам
Продолжительность промежутка : 42 мс. (1,00 видеокадр)
Время предзагрузки промежутка : 500 ms
Библиотека кодирования : LAME3.99r
Настройки программы : -m j -V 4 -q 2 -lowpass 18.6 -b 192

Аудио #2
Идентификатор : 2
Формат : MPEG Audio
Версия формата : Version 1
Профиль формата : Layer 3
Режим : Joint stereo
Расширение режима : MS Stereo
Идентификатор кодека : 55
Идентификатор кодека/Подсказка : MP3
Продолжительность : 42 м.
Вид битрейта : Постоянный
Битрейт : 192 Кбит/сек
Каналы : 2 канала
Частота : 48,0 КГц
Метод сжатия : С потерями
Размер потока : 57,9 Мбайт (10%)
Выравнивание : Соединение по промежуткам
Продолжительность промежутка : 42 мс. (1,00 видеокадр)
Время предзагрузки промежутка : 504 ms
Библиотека кодирования : LAME3.99r
Настройки программы : -m j -V 4 -q 2 -lowpass 18.6 -b 192
загрузка...
Правила, инструкции, FAQ!!!
Торрент  Добавлен [08 фев 2013, 14:22] Скачать торрент
Скачать торрент
[ Размер 12.1 КБ / Просмотров 15 ]

Статус
Проверен 
 
Размер  597.28 МБ
Приватный: Нет (DHT включён)
.torrent скачан  0
Как залить торрент? | Как скачать Torrent? | Как смотреть и слушать онлайн?  


     Отправить личное сообщение
   
Страница 1 из 1
Показать сообщения за:  Поле сортировки  
Начать новую тему Ответить на тему

   Похожие торренты   Автор   Ответы   Просмотры   Последнее сообщение 
В этой теме нет новых непрочитанных сообщений. Скачать торрент Заложница / Taken (Пьер Морель / Pierre Morel) [2008 г., Криминал / Триллер / Драма / Боевик, DVDRip] AVO (Гаврилов)

в форуме Криминал, Размер: 1.35 ГБ, Здоровье: 100%

Anonymous

0
1|0

77
0

12 фев 2014, 08:16

Anonymous Перейти к последнему сообщению

В этой теме нет новых непрочитанных сообщений. Скачать торрент Последний час / Last Hour (Паскаль Кабуэт / Pascal Caubet) [2008, Франция / Гонконг, Боевик, триллер, драма, DVDRip] MVO + original

в форуме Боевики, Размер: 773.55 МБ, Здоровье: 0%

Anonymous

0
0|0

43
0

12 фев 2014, 08:17

Anonymous Перейти к последнему сообщению

В этой теме нет новых непрочитанных сообщений. Скачать торрент Проверен [iPad] Крушение / Wrecked [2010, США, Канада, Триллер, драма, детектив, приключения, BDRip, 576p] MVO + Original + sub (rus, eng)

в форуме Фильмы для iPod, iPhone, iPad, Размер: 1.53 ГБ, Здоровье: 100%

Anonymous

0
3|1

33
0

13 май 2015, 23:58

Anonymous Перейти к последнему сообщению

В этой теме нет новых непрочитанных сообщений. Скачать торрент Проверен [iPhone] Оно / It (Томми Ли Уоллес) [1990 г., ужасы, триллер, фэнтези, комедия, драма, приключения, детектив, DVDRip]

в форуме Фильмы для iPod, iPhone, iPad, Размер: 977.23 МБ, Здоровье: 100%

Гость

0
1|0

34
0

18 май 2015, 10:38

Гость Перейти к последнему сообщению

В этой теме нет новых непрочитанных сообщений. Скачать торрент Проверен [VIDEO] План побега / Escape Plan (Микаэль Хофстрём / Mikael Håfström) [2013, боевик, триллер, детектив, HDRip] [MP4, 960x] Dub, MVO Baibako, AVO Гаврилов

в форуме Видео для смартфонов и КПК, Размер: 1.49 ГБ, Здоровье: 0%

Anonymous

0
0|0

74
0

02 авг 2014, 16:55

Anonymous Перейти к последнему сообщению



Сейчас этот форум просматривают: нет зарегистрированных пользователей и гости: 2


Вы не можете начинать темы
Вы не можете отвечать на сообщения
Вы не можете редактировать свои сообщения
Вы не можете удалять свои сообщения
Вы не можете добавлять вложения

Перейти:  

!ВНИМАНИЕ!
 Ресурс не предоставляет электронные версии произведений, а занимается лишь коллекционированием и каталогизацией ссылок, присылаемых и публикуемых на форуме нашими читателями. Если вы являетесь правообладателем какого-либо представленного материала и не желаете чтобы ссылка на него находилась в нашем каталоге, свяжитесь с нами и мы незамедлительно удалим её. Файлы для обмена на трекере предоставлены пользователями сайта, и администрация не несёт ответственности за их содержание. Просьба не заливать файлы, защищенные авторскими правами, а также файлы нелегального содержания!