На всех торрентах на трекере установлена скидка на скачивание в размере 100 процентов(а).
 Возможность скачивания торрента НЕ зависит от ограничений при низком ратио, низком аплоаде, требуемом ратио или требуемом аплоаде.


Начать новую тему Ответить на тему
Статистика раздачи
Размер: 4.37 ГБ | Добавлен: 10 июл 2014, 07:32 | Скачали: 218
Сидеров: 46  [0 байт/сек]    Личеров: 9  [0 байт/сек]
Пред. тема | След. тема 

Автор
Сообщение

СообщениеДобавлено: 10 июл 2014, 07:32 

Страна: Италия, Германия
Производство: France 2 (FR 2), Mediaset, Taurus Film

Жанр: приключения
Год выпуска: 1999
Продолжительность: 06:26:19 (01:40:32+01:38:36+01:33:55+01:33:16)

Перевод: Профессиональный (многоголосый, закадровый)
Оригинальная аудиодорожка: нет
Cубтитры: нет

Режиссер: Ламберто Бава / Lamberto Bava

В ролях:
Марио Адорф, Анна Фальчи, Дженнифер Нитш, Николас Роджерс, Паоло Седжанти, Ремо Джироне, Падма Лакшми, Франческо Касале, Микаэла Фленерова, Бранислав Мартинак, Джанни Музи, Хосе Антонио Родригез, Отто Шевчик...

Описание:
Они были братьями, но любили одну и ту же женщину. После ее случайной гибели один уходит на службу к королю Франции и становится капитаном флота его величества, другой становится знаменитым пиратом. Они поклялись убить друг друга. И судьба свела их на морских просторах в грандиозном противостоянии, в битве не на жизнь, а на смерть!





Исходник: 2хDVD9 R5
Тип релиза: DVDRip
Контейнер: AVI

Видео: 688x512 (4:3), 25 fps, XviD ~ 1417 kbps avg, 0.161 bit/pixel
Аудио: 48 kHz, Dolby Digital AC3 2.0, 192 kbps

Раздача от:
Общее
Полное имя : Piraty.1999.DVDRip_[New-team]_by_AVP_Studio.avi
Формат : AVI
Формат/Информация : Audio Video Interleave
Размер файла : 1,14 Гбайт
Продолжительность : 1 ч. 40 м.
Общий поток : 1619 Кбит/сек
Программа кодирования : VirtualDubModRus 1.5.10.2 (build 2542/release)
Библиотека кодирования : VirtualDubMod build 2542/release

Видео
Идентификатор : 0
Формат : MPEG-4 Visual
Профиль формата : Advanced Simple@L5
Параметр BVOP формата : 1
Параметр QPel формата : Нет
Параметр GMC формата : Без точки перехода
Параметр матрицы формата : Выборочная
Идентификатор кодека : XVID
Идентификатор кодека/Подсказка : XviD
Продолжительность : 1 ч. 40 м.
Битрейт : 1417 Кбит/сек
Ширина : 688 пикселей
Высота : 512 пикселей
Соотношение сторон : 4:3
Частота кадров : 25,000 кадров/сек
Цветовое пространство : YUV
Субдискретизация насыщенности : 4:2:0
Битовая глубина : 8 бит
Тип развёртки : Прогрессивная
Метод сжатия : С потерями
Бит/(Пиксели*Кадры) : 0.161
Размер потока : 1019 Мбайт (88%)
Библиотека кодирования : XviD 73

Аудио
Идентификатор : 1
Формат : AC-3
Формат/Информация : Audio Coding 3
Расширение режима : CM (complete main)
Параметр Endianness формата : Big
Идентификатор кодека : 2000
Продолжительность : 1 ч. 40 м.
Вид битрейта : Постоянный
Битрейт : 192 Кбит/сек
Каналы : 2 канала
Расположение каналов : Front: L R
Частота : 48,0 КГц
Битовая глубина : 16 бит
Метод сжатия : С потерями
Размер потока : 138 Мбайт (12%)
Выравнивание : Разделение по промежуткам
Продолжительность промежутка : 40 мс. (1,00 видеокадр)
Время предзагрузки промежутка : 500 мс


загрузка...
Правила, инструкции, FAQ!!!
Торрент  Добавлен [10 июл 2014, 07:32] Скачать торрент
Скачать торрент
[ Размер 11.86 КБ / Просмотров 12 ]

Статус
Проверен 
 
Размер  4.37 ГБ
Приватный: Нет (DHT включён)
.torrent скачан  218
Как залить торрент? | Как скачать Torrent? | Как смотреть и слушать онлайн?  


     Отправить личное сообщение
   
Страница 1 из 1
Показать сообщения за:  Поле сортировки  
Начать новую тему Ответить на тему

   Похожие торренты   Автор   Ответы   Просмотры   Последнее сообщение 
В этой теме нет новых непрочитанных сообщений. Скачать торрент Проверен Пронин Игорь - Этногенез / Пираты 4, Пираты. Охота на дельфина [Евгений Соколов, (ЛИ), 2014 г., 128 kbps, MP3]

в форуме Российская фантастика, фэнтези, мистика, ужасы, фанфики, Размер: 463.55 МБ, Здоровье: 0%

Anonymous

0
0|0

7
0

10 сен 2016, 19:51

Anonymous Перейти к последнему сообщению

В этой теме нет новых непрочитанных сообщений. Скачать торрент Проверен Висенте Рива де Паласио - Пираты Мексиканского залива ( Пираты Карибских морей ) [Сергей Кирсанов, 2007, 160 kbps]

в форуме Детектив и Боевики, Размер: 656.2 МБ, Здоровье: 100%

Anonymous

0
2|1

0
0

20 ноя 2016, 13:05

Anonymous Перейти к последнему сообщению

В этой теме нет новых непрочитанных сообщений. Скачать торрент Проверен Висенте Рива де Паласио - Пираты Мексиканского залива (Пираты Карибских морей) [Сергей Кирсанов, 2007, 64 kbps]

в форуме Детектив и Боевики, Размер: 251.73 МБ, Здоровье: 100%

Anonymous

0
1|0

0
0

20 ноя 2016, 13:04

Anonymous Перейти к последнему сообщению

В этой теме нет новых непрочитанных сообщений. Скачать торрент Проверен Пираты ХХ века (Борис Дуров) [1979, боевик, DVDRip]

в форуме Кино СССР, Размер: 1.47 ГБ, Здоровье: 100%

Anonymous

0
72|20

24
1

21 окт 2014, 20:53

Anonymous Перейти к последнему сообщению

В этой теме нет новых непрочитанных сообщений. Скачать торрент Проверен Пираты северных морей / Erkan & Stefan in Der Tod kommt krass (2005) DVDRip | P

в форуме Комедии, Размер: 1.46 ГБ, Здоровье: 31%

Anonymous

0
15|48

94
8

23 авг 2015, 17:12

Anonymous Перейти к последнему сообщению



Сейчас этот форум просматривают: нет зарегистрированных пользователей и гости: 1


Вы не можете начинать темы
Вы не можете отвечать на сообщения
Вы не можете редактировать свои сообщения
Вы не можете удалять свои сообщения
Вы не можете добавлять вложения

Перейти:  

!ВНИМАНИЕ!
 Ресурс не предоставляет электронные версии произведений, а занимается лишь коллекционированием и каталогизацией ссылок, присылаемых и публикуемых на форуме нашими читателями. Если вы являетесь правообладателем какого-либо представленного материала и не желаете чтобы ссылка на него находилась в нашем каталоге, свяжитесь с нами и мы незамедлительно удалим её. Файлы для обмена на трекере предоставлены пользователями сайта, и администрация не несёт ответственности за их содержание. Просьба не заливать файлы, защищенные авторскими правами, а также файлы нелегального содержания!