На всех торрентах на трекере установлена скидка на скачивание в размере 100 процентов(а).
 Возможность скачивания торрента НЕ зависит от ограничений при низком ратио, низком аплоаде, требуемом ратио или требуемом аплоаде.


Начать новую тему Ответить на тему
Статистика раздачи
Размер: 16.97 ГБ | Добавлен: 21 май 2014, 13:36 | Скачали: 1314
Сидеров: 8  [0 байт/сек]    Личеров: 6  [0 байт/сек]
Пред. тема | След. тема 

Автор
Сообщение

СообщениеДобавлено: 21 май 2014, 13:36 

Название: Вегас
Оригинальное название: Vegas
Год выхода: 2012
Жанр: боевик, драма, криминал, детектив, вестерн
Режиссер: Мэтт Эрл Бисли, Дуан Кларк, Роксанн Доусон

В ролях: Деннис Куэйд, Майкл Чиклис, Кэрри-Энн Мосс, Тейлор Хэндли, Джейсон О’Мара, Сара Джонс, Джеймс Руссо, Сонни Маринелли, Айми Гарсиа, Майкл Рейли Бурк

О фильме:
Фильм снят по реальным событиям, о ковбое по имени Ральф Лэмб, в 1960-м году ставшем главным шерифом Лас-Вегаса и прослужившем на этом посту 18 лет. При Лэмбе был сформирован полицейский департамент города. Он противостоял мафии, мото-банде «Ангелы ада» и прославился тем, что ни разу ни в кого не выстрелил.

01. Пилот / Pilot
02. Игра на деньги / Money Plays
03. Все, что блестит / All That Glitters
04. (Не) законный / (Il)Legitimate
05. Солидные Граждане / Solid Citizens
06. Подлинник / The Real Thing
07. Негодные зерна / Bad Seeds
08. Изобличение / Exposure
09. Маскарад / Masquerade
10. Эстинто / Estinto
11. Племя Пайютов / Paiutes
12. Начиная с сегодняшнего дня / From This Day Forward
13. Поездка за город / Road Trip
14. Третий человек / The Third Man
15. Два сапога пара / Two of a Kind
16. Мелкая рыбка / Little Fish
17. Голливудская концовка / Hollywood Ending
18. Мерзавцы / Scoundrels
19. От прошлого не уйти / Past Lives
20. Неоконченное дело / Unfinished Business
21. Сыны Невады / Sons of Nevada




Страна: США
Студия: CBS Television Studios, Happy Valley Films, Tree Line Films, Arthur Sarkissian Productions
Продолжительность: ~00:45:00 серия
Перевод: Профессиональный (многоголосый закадровый) [Novamedia по заказу Amedia]
Автор перевода: Максим Панегин
Озвучка: Илья Исаев, Андрей Бархударов, Алексей Войтюк, Александр Расков, Владимир Рыбальченко, Елена Тёплая
Режиссёр озвучки: Елена Шульга
Работа со звуком: xironfs
Рип: xironfs

Файл
Кодек: XviD / AC3
Качество: WEB-DLRip
Видео: MPEG4, XviD, 720x400 (1.80:1), 23.976 fps, XviD build 65 ~2000 kbps avg, 0.290 bit/pixel
Звук:
Аудио #1: Rus AC-3, 48.0 KHz, 6 ch, 384 Kbps, CBR
Аудио #2: Eng AC-3, 48.0 KHz, 6 ch, 384 Kbps, CBR

General
Complete name : /Vegas (Сезон 1) NewStudio/Vegas.s01e01.rus.eng.avi
Format : AVI
Format/Info : Audio Video Interleave
File size : 902 MiB
Duration : 45mn 24s
Overall bit rate : 2 779 Kbps
Writing application : VirtualDubMod 1.5.10.2 (build 2540/release)
Writing library : VirtualDubMod build 2540/release

Video
ID : 0
Format : MPEG-4 Visual
Format profile : Advanced Simple@L5
Format settings, BVOP : 1
Format settings, QPel : No
Format settings, GMC : No warppoints
Format settings, Matrix : Default (MPEG)
Codec ID : XVID
Codec ID/Hint : XviD
Duration : 45mn 24s
Bit rate : 1 890 Kbps
Width : 720 pixels
Height : 400 pixels
Display aspect ratio : 16:9
Frame rate : 23.976 fps
Color space : YUV
Chroma subsampling : 4:2:0
Bit depth : 8 bits
Scan type : Progressive
Compression mode : Lossy
Bits/(Pixel*Frame) : 0.274
Stream size : 614 MiB (68%)
Writing library : XviD 65

Audio #1
ID : 1
Format : AC-3
Format/Info : Audio Coding 3
Mode extension : CM (complete main)
Format settings, Endianness : Big
Codec ID : 2000
Duration : 45mn 24s
Bit rate mode : Constant
Bit rate : 384 Kbps
Channel(s) : 6 channels
Channel positions : Front: L C R, Side: L R, LFE
Sampling rate : 48.0 KHz
Bit depth : 16 bits
Compression mode : Lossy
Stream size : 125 MiB (14%)
Alignment : Split accross interleaves

Audio #2
ID : 2
Format : AC-3
Format/Info : Audio Coding 3
Mode extension : CM (complete main)
Format settings, Endianness : Big
Codec ID : 2000
Duration : 45mn 24s
Bit rate mode : Constant
Bit rate : 384 Kbps
Channel(s) : 6 channels
Channel positions : Front: L C R, Side: L R, LFE
Sampling rate : 48.0 KHz
Bit depth : 16 bits
Compression mode : Lossy
Stream size : 125 MiB (14%)
Alignment : Split accross interleaves
загрузка...
Правила, инструкции, FAQ!!!
Торрент  Добавлен [21 май 2014, 13:36] Скачать торрент
Скачать торрент
[ Размер 87.74 КБ / Просмотров 9 ]

Статус
Проверен 
 
Размер  16.97 ГБ
Приватный: Нет (DHT включён)
.torrent скачан  1314
Как залить торрент? | Как скачать Torrent? | Как смотреть и слушать онлайн?  


     Отправить личное сообщение
   
Страница 1 из 1
Показать сообщения за:  Поле сортировки  
Начать новую тему Ответить на тему

   Похожие торренты   Автор   Ответы   Просмотры   Последнее сообщение 
В этой теме нет новых непрочитанных сообщений. Скачать торрент Проверен Царство / Reign [S01] (2013-2014) WEB-DLRip | Amedia

в форуме Зарубежные сериалы, Размер: 9.39 ГБ, Здоровье: 100%

Anonymous

0
344|72

123
1489

19 май 2014, 14:14

Anonymous Перейти к последнему сообщению

В этой теме нет новых непрочитанных сообщений. Скачать торрент Проверен Мастера Секса / Masters of Sex [S02] (2014) WEB-DLRip от qqss44 | Amedia

в форуме Зарубежные сериалы, Размер: 7.7 ГБ, Здоровье: 100%

Anonymous

0
31|20

90
261

04 окт 2014, 23:21

Anonymous Перейти к последнему сообщению

В этой теме нет новых непрочитанных сообщений. Скачать торрент Проверен Куку / Cuckoo [S01] (2012) HDTVRip | Amedia

в форуме Зарубежные сериалы, Размер: 2.86 ГБ, Здоровье: 100%

Anonymous

0
36|7

61
287

30 окт 2014, 23:22

Anonymous Перейти к последнему сообщению

В этой теме нет новых непрочитанных сообщений. Скачать торрент Зовите меня Фитц / Call Me Fitz (2012) BDRip (Сезон 3, серии 1-12 из 12) Amedia

в форуме Зарубежные сериалы, Размер: 11.02 ГБ, Здоровье: ???%

Anonymous

0
0|1

70
1

16 дек 2013, 12:59

Anonymous Перейти к последнему сообщению

В этой теме нет новых непрочитанных сообщений. Скачать торрент Проверен [TR24][OF] Elvis Presley - From Memphis To Vegas/From Vegas To Memphis (Official Digital Download) - 1969/2015 (Rock & Roll)

в форуме Hi-Res stereo (рок), Размер: 1.43 ГБ, Здоровье: 100%

Anonymous

0
8|2

15
2

24 авг 2016, 10:58

Anonymous Перейти к последнему сообщению



Сейчас этот форум просматривают: нет зарегистрированных пользователей и гости: 1


Вы не можете начинать темы
Вы не можете отвечать на сообщения
Вы не можете редактировать свои сообщения
Вы не можете удалять свои сообщения
Вы не можете добавлять вложения

Перейти:  

!ВНИМАНИЕ!
 Ресурс не предоставляет электронные версии произведений, а занимается лишь коллекционированием и каталогизацией ссылок, присылаемых и публикуемых на форуме нашими читателями. Если вы являетесь правообладателем какого-либо представленного материала и не желаете чтобы ссылка на него находилась в нашем каталоге, свяжитесь с нами и мы незамедлительно удалим её. Файлы для обмена на трекере предоставлены пользователями сайта, и администрация не несёт ответственности за их содержание. Просьба не заливать файлы, защищенные авторскими правами, а также файлы нелегального содержания!