На всех торрентах на трекере установлена скидка на скачивание в размере 100 процентов(а).
 Возможность скачивания торрента НЕ зависит от ограничений при низком ратио, низком аплоаде, требуемом ратио или требуемом аплоаде.


Начать новую тему Ответить на тему
Статистика раздачи
Размер: 1.95 ГБ | Добавлен: 14 апр 2013, 21:41 | Скачали: 0
Сидеров: 0  [0 байт/сек]    Личеров: 10  [0 байт/сек]
Пред. тема | След. тема 

Автор
Сообщение

СообщениеДобавлено: 14 апр 2013, 21:41 

Русское название: Группа «З.О.В.» Задания особой важности
Выпущено: Россия
Год выпуска: 2013
Жанр: Приключения, Военный
Перевод: Оригинал (Русский)
Субтитры: Отсутствуют


Дата российской премьеры: 14 апреля 2013

Режиссер: Петр Амелин
Актеры: Эдуард Трухменёв, Мария Куликова, Сергей Баталов, Иван Дубровский, Данила Воропаев, Елена Радевич, Михаил Елисеев, Андрей Аксёнов, Андрей Павловец и другие

Вкратце:
Сериал рассказывает о группе советских разведчиков-диверсантов, выполняющих во время Второй мировой войны задания особой важности. Первое задание — уничтожить стратегические склады горючего, захваченные немцами во время стремительного наступления. Второе — уничтожить лабораторию, в которой немцами разрабатываются прототипы невидимых для радаров сверхзвуковых самолетов. Выполнение заданий сильно усложняет тот факт, что в первоначальном составе группы 3 мужчины и 2 женщины — без роковых любовных треугольников тут не обойтись…

Продолжительность: 4 х ~ 00:44:47 серия
Качество видео: SATRip

Видеокодек: Xvid
Битрейт видео: ~1430 Kbit/s
Размер кадра: 720 х 400
Аудиокодек: MP3, 2.0
Битрейт аудио: 128 Kbit/s
Общее
Полное имя: D:\Торренты\ФИЛЬМЫ торента\Группа «З.О.В.» Задания особой важности. 2013. SATRip\Группа «З.О.В.» Операция «Тайфун».01.avi
Формат : AVI
Формат/Информация : Audio Video Interleave
Размер файла : 500 Мбайт
Продолжительность : 44 м.
Общий поток : 1568 Кбит/сек
Программа кодирования : VirtualDubMod 1.5.10.2 (build 2540/release)
Библиотека кодирования : VirtualDubMod build 2540/release

Видео
Идентификатор : 0
Формат : MPEG-4 Visual
Профиль формата : Advanced Simple@L5
Параметр BVOP формата : 2
Параметр QPel формата : Нет
Параметр GMC формата : Без точки перехода
Параметр матрицы формата : Default (MPEG)
Идентификатор кодека : XVID
Идентификатор кодека/Подсказка : XviD
Продолжительность : 44 м.
Битрейт : 1430 Кбит/сек
Ширина : 720 пикс.
Высота : 400 пикс.
Соотношение сторон : 16:9
Частота кадров : 25,000 кадр/сек
Цветовое пространство : YUV
Подвыборка цветности : 4:2:0
Битовая глубина : 8 бит
Тип развёртки : Прогрессивная
Метод сжатия : С потерями
Бит/(Пиксели*Кадры) : 0.199
Размер потока : 456 Мбайт (91%)
Библиотека кодирования : XviD 65

Аудио
Идентификатор : 1
Формат : MPEG Audio
Версия формата : Version 1
Профиль формата : Layer 3
Режим : Joint stereo
Идентификатор кодека : 55
Идентификатор кодека/Подсказка : MP3
Продолжительность : 44 м.
Вид битрейта : Постоянный
Битрейт : 128 Кбит/сек
Каналы : 2 канала
Частота : 48,0 КГц
Метод сжатия : С потерями
Размер потока : 40,8 Мбайт (8%)
Выравнивание : Соединение по промежуткам
Продолжительность промежутка : 40 мс. (1,00 видеокадр)
Время предзагрузки промежутка : 504 ms


загрузка...
Правила, инструкции, FAQ!!!
Торрент  Добавлен [14 апр 2013, 21:41] Скачать торрент
Скачать торрент
[ Размер 20.9 КБ / Просмотров 39 ]

Статус  
 
Размер  1.95 ГБ
Приватный: Нет (DHT включён)
.torrent скачан  0
Как залить торрент? | Как скачать Torrent? | Как смотреть и слушать онлайн?  


     Отправить личное сообщение
   
Страница 1 из 1
Показать сообщения за:  Поле сортировки  
Начать новую тему Ответить на тему

   Похожие торренты   Автор   Ответы   Просмотры   Последнее сообщение 
В этой теме нет новых непрочитанных сообщений. Скачать торрент Проверен Карусель. Служба спасения домашнего задания. (78 выпусков) (2012) SATRip

в форуме Развивающее Видео для детей, Размер: 13.69 ГБ, Здоровье: 100%

Anonymous

0
3|1

11
0

30 ноя 2015, 23:36

Anonymous Перейти к последнему сообщению

В этой теме нет новых непрочитанных сообщений. Скачать торрент Женщина в беде [04 серии из 04] SATRip (2014) SATRip

в форуме Отечественные сериалы, Размер: 2.26 ГБ, Здоровье: 100%

Anonymous

0
129|14

136
1322

09 мар 2014, 10:45

Anonymous Перейти к последнему сообщению

В этой теме нет новых непрочитанных сообщений. Скачать торрент Проверен Покойо / Pocoyo (2005-2009) SATRip (1 сезон: 1-52 серии, 2 сезон: 1- 52 серии из 104) [Обновляемая]

в форуме Развивающее Видео для детей, Размер: 9.33 ГБ, Здоровье: 100%

Гость

0
218|169

539
14

01 дек 2015, 00:15

Гость Перейти к последнему сообщению

В этой теме нет новых непрочитанных сообщений. Скачать торрент Ледовый путь дальнобойщиков - Сезон 7 (серии 1-12 из 12) / Ice Road Truckers / History Channel [2013, Документальный, SATRip, XviD, RU]

в форуме Документальные/познавательные фильмы, Размер: 6.65 ГБ, Здоровье: 100%

Anonymous

0
29|10

296
16

04 мар 2014, 13:59

Anonymous Перейти к последнему сообщению

В этой теме нет новых непрочитанных сообщений. Скачать торрент Проверен Почемучка: Астрономия / Сезон 3 / Серии 1 - 26 (26) [2013, астрономия, SATRip, RUS] (Видеоурок)

в форуме Обучающие издания для детей, Размер: 4.67 ГБ, Здоровье: 100%

Anonymous

0
269|13

118
11

28 янв 2015, 00:07

Anonymous Перейти к последнему сообщению



Сейчас этот форум просматривают: нет зарегистрированных пользователей и гости: 1


Вы не можете начинать темы
Вы не можете отвечать на сообщения
Вы не можете редактировать свои сообщения
Вы не можете удалять свои сообщения
Вы не можете добавлять вложения

Перейти:  

!ВНИМАНИЕ!
 Ресурс не предоставляет электронные версии произведений, а занимается лишь коллекционированием и каталогизацией ссылок, присылаемых и публикуемых на форуме нашими читателями. Если вы являетесь правообладателем какого-либо представленного материала и не желаете чтобы ссылка на него находилась в нашем каталоге, свяжитесь с нами и мы незамедлительно удалим её. Файлы для обмена на трекере предоставлены пользователями сайта, и администрация не несёт ответственности за их содержание. Просьба не заливать файлы, защищенные авторскими правами, а также файлы нелегального содержания!