На всех торрентах на трекере установлена скидка на скачивание в размере 100 процентов(а).
 Возможность скачивания торрента НЕ зависит от ограничений при низком ратио, низком аплоаде, требуемом ратио или требуемом аплоаде.


Начать новую тему Ответить на тему
Статистика раздачи
Размер: 15.08 ГБ | Добавлен: 28 сен 2013, 23:22 | Скачали: 1
Сидеров: 17  [0 байт/сек]    Личеров: 2  [0 байт/сек]
Пред. тема | След. тема 

Автор
Сообщение

СообщениеДобавлено: 28 сен 2013, 23:22 

Гарри Поттер и дары смерти: Часть II / Harry Potter and the Deathly Hallows: Part 2 (2011) BDRip


«Все закончится»


Русское название: Гарри Поттер и дары смерти: Часть II
Оригинальное название: Harry Potter and the Deathly Hallows: Part 2
Год выпуска: 2011
Жанр: Фэнтези, Драма, Детектив, Приключения

Описание фильма:
В грандиозной последней главе битва между добрыми и злыми силами мира волшебников перерастает во всеобщую войну. Ставки ещё никогда не были так высоки, а поиск убежища — столь сложен. И быть может именно Гарри Поттеру придется пожертвовать всем в финальном сражении с Волан-де-Мортом. Способен ли наш герой спасти мир? И всё закончится здесь.

Режиссер: Дэвид Йэтс
Актеры: Дэниэл Рэдклифф, Руперт Гринт, Эмма Уотсон, Хелена Бонем Картер, Робби Колтрейн, Уорвик Дэвис, Рэйф Файнс, Майкл Гэмбон, Джон Хёрт, Джейсон Айзекс

Продолжительность: 02:10:26
Перевод: Дублированный



Дата мировой премьеры: 7 июля 2011
Дата российской премьеры: 13 июля 2011, «Каро-Премьер»
Дата выхода DVD релиза: 17 ноября 2011, «CP-Digital»
Дата выхода BLU-RAY релиза: 17 ноября 2011, «CP-Digital»

Видеокодек: MPEG-4 AVC/H.264
Битрейт видео: ~14,3 Мбит/сек
Размер кадра: 1920x1080
Качество видео: BDRip
Аудио №1: AC3 5.1, 640 kbps - Русский
Аудио №2: AC3 5.1, 640 kbps - Украинский
Аудио №3: AC3 5.1, 640 kbps - Английский

Общее
Уникальный идентификатор : 241489600394816132790738193247874364157 (0xB5AD348C4D79E1EF8957D3A4A43CB2FD)
Полное имя : H:\my films\HP7B.mkv
Формат : Matroska
Версия формата : Version 4 / Version 2
Размер файла : 15,1 Гбайт
Продолжительность : 2 ч. 10 м.
Общий поток : 16,5 Мбит/сек
Название фильма : HP7B_crop_over/under
Дата кодирования : UTC 2010-02-22 21:41:31
Программа кодирования : mkvmerge v5.9.0 ('On The Loose') built on Dec 9 2012 15:37:01
Библиотека кодирования : libebml v1.3.0 + libmatroska v1.4.0

Видео
Идентификатор : 1
Формат : AVC
Формат/Информация : Advanced Video Codec
Профиль формата :
Параметр CABAC формата : Да
Параметр ReFrames формата : 4 кадра
Параметр GOP формата : M=5, N=12
Режим смешивания : Header stripping
Идентификатор кодека : V_MPEG4/ISO/AVC
Продолжительность : 2 ч. 10 м.
Битрейт : 14,3 Мбит/сек
Ширина : 1920 пикселей
Высота : 1080 пикселей
Соотношение сторон : 16:9
Режим частоты кадров : Постоянный
Частота кадров : 23,976 кадра/сек
Цветовое пространство : YUV
Субдискретизация насыщенности : 4:2:0
Битовая глубина : 8 бит
Тип развёртки : Прогрессивная
Бит/(Пиксели*Кадры) : 0.288
Размер потока : 13,0 Гбайт (86%)
Заголовок : rip by I/N
Библиотека кодирования : x264 core 128 r2216M 198a7ea
Настройки программы : cabac=1 / ref=4 / deblock=1:-3:-3 / analyse=0x3:0x133 / me=umh / subme=7 / psy=1 / psy_rd=1.00:0.10 / mixed_ref=1 / me_range=32 / chroma_me=1 / trellis=2 / 8x8dct=1 / cqm=1 / deadzone=21,11 / fast_pskip=1 / chroma_qp_offset=-3 / threads=4 / lookahead_threads=1 / sliced_threads=0 / nr=0 / decimate=1 / interlaced=0 / bluray_compat=0 / constrained_intra=0 / bframes=4 / b_pyramid=2 / b_adapt=2 / b_bias=0 / direct=2 / weightb=1 / open_gop=0 / weightp=2 / keyint=12 / keyint_min=2 / scenecut=60 / intra_refresh=0 / rc_lookahead=17 / rc=crf / mbtree=1 / crf=17.0 / qcomp=0.60 / qpmin=10 / qpmax=60 / qpstep=4 / vbv_maxrate=40000 / vbv_bufsize=30000 / crf_max=30.0 / nal_hrd=none / ip_ratio=1.40 / aq=1:0.70
Default : Да
Forced : Нет

Аудио #1
Идентификатор : 2
Формат : AC-3
Формат/Информация : Audio Coding 3
Расширение режима : CM (complete main)
Параметр Endianness формата : Big
Режим смешивания : Header stripping
Идентификатор кодека : A_AC3
Продолжительность : 2 ч. 10 м.
Вид битрейта : Постоянный
Битрейт : 640 Кбит/сек
Каналы : 6 каналов
Расположение каналов : Front: L C R, Side: L R, LFE
Частота : 48,0 КГц
Битовая глубина : 16 бит
Метод сжатия : С потерями
Размер потока : 597 Мбайт (4%)
Язык : Russian
Default : Да
Forced : Нет

Аудио #2
Идентификатор : 3
Формат : AC-3
Формат/Информация : Audio Coding 3
Расширение режима : CM (complete main)
Параметр Endianness формата : Big
Режим смешивания : Header stripping
Идентификатор кодека : A_AC3
Продолжительность : 2 ч. 10 м.
Вид битрейта : Постоянный
Битрейт : 640 Кбит/сек
Каналы : 6 каналов
Расположение каналов : Front: L C R, Side: L R, LFE
Частота : 48,0 КГц
Битовая глубина : 16 бит
Метод сжатия : С потерями
Размер потока : 597 Мбайт (4%)
Язык : Ukrainian
Default : Нет
Forced : Нет

Аудио #3
Идентификатор : 4
Формат : AC-3
Формат/Информация : Audio Coding 3
Расширение режима : CM (complete main)
Параметр Endianness формата : Big
Режим смешивания : Header stripping
Идентификатор кодека : A_AC3
Продолжительность : 2 ч. 10 м.
Вид битрейта : Постоянный
Битрейт : 640 Кбит/сек
Каналы : 6 каналов
Расположение каналов : Front: L C R, Side: L R, LFE
Частота : 48,0 КГц
Битовая глубина : 16 бит
Метод сжатия : С потерями
Размер потока : 597 Мбайт (4%)
Язык : English
Default : Нет
Forced : Нет

Меню
00:00:00.000 : en:(01)00:00:00:000
00:02:58.219 : en:(02)00:02:58:219
00:06:21.172 : en:(03)00:06:21:172
00:10:21.871 : en:(04)00:10:21:871
00:14:27.992 : en:(05)00:14:27:992
00:20:05.621 : en:(06)00:20:05:621
00:22:47.783 : en:(07)00:22:47:783
00:25:38.620 : en:(08)00:25:38:620
00:30:46.803 : en:(09)00:30:46:803
00:34:33.654 : en:(10)00:34:33:654
00:40:32.263 : en:(11)00:40:32:263
00:45:52.249 : en:(12)00:45:52:249
00:50:15.470 : en:(13)00:50:15:470
00:54:41.027 : en:(14)00:54:41:027
00:59:01.287 : en:(15)00:59:01:287
01:03:42.068 : en:(16)01:03:42:068
01:07:06.063 : en:(17)01:07:06:063
01:11:24.488 : en:(18)01:11:24:488
01:14:38.932 : en:(19)01:14:38:932
01:23:40.849 : en:(20)01:23:40:849
01:29:17.727 : en:(21)01:29:17:727
01:31:25.021 : en:(22)01:31:25:021
01:36:37.666 : en:(23)01:36:37:666
01:41:09.104 : en:(24)01:41:09:104
01:46:42.312 : en:(25)01:46:42:312
01:50:18.361 : en:(26)01:50:18:361
01:54:16.683 : en:(27)01:54:16:683
01:58:12.877 : en:(28)01:58:12:877
02:10:26.693 : en:(29)02:10:26:693
Скриншоты:

Справа и слева у видеоряда обрезано по 248р, что дает возможность просмотра на полный экран (без черных полос) на телевизорах с соотношением сторон 16:9 без изменения пропорций. На мой взгляд плюсы данных рипов- это более глубокое восприятие 3D-эффектов (конечно там где они есть) К минусам отнесу- вынужденное обрезание кадра по бокам. Так-что господа- выбор за вами! Всем приятного просмотра!
Проверено на встроенном плейере ТВ Samsung-D6500


Время раздачи: 24/7 - круглосуточно до 15 скачавших
загрузка...
Правила, инструкции, FAQ!!!
Торрент  Добавлен [28 сен 2013, 23:22] Скачать торрент
Скачать торрент
[ Размер 38.69 КБ / Просмотров 14 ]

Статус  
 
Размер  15.08 ГБ
Приватный: Нет (DHT включён)
.torrent скачан  1
Как залить торрент? | Как скачать Torrent? | Как смотреть и слушать онлайн?  


     Отправить личное сообщение
   
Страница 1 из 1
Показать сообщения за:  Поле сортировки  
Начать новую тему Ответить на тему

   Похожие торренты   Автор   Ответы   Просмотры   Последнее сообщение 
В этой теме нет новых непрочитанных сообщений. Скачать торрент Проверен [PSP] Гарри Поттер и Дары смерти: Часть 1 / Harry Potter and the Deathly Hallows: Part 1 (2010) HDRip

в форуме Видео для смартфонов и КПК, Размер: 410.28 МБ, Здоровье: ???%

Anonymous

0
0|1

49
0

25 окт 2014, 23:21

Anonymous Перейти к последнему сообщению

В этой теме нет новых непрочитанных сообщений. Скачать торрент Гарри Поттер и Дары смерти: Часть 1 / Harry Potter and the Deathly Hallows: Part 1 (Дэвид Йэтс / David Yates) [2010 г., фэнтези, драма, детектив, приключения, BDRip-AVC] Dub

в форуме Фантастика, Фэнтези, Размер: 1.46 ГБ, Здоровье: 100%

Anonymous

0
34|11

56
0

17 май 2014, 20:06

Anonymous Перейти к последнему сообщению

В этой теме нет новых непрочитанных сообщений. Скачать торрент Проверен Джоан Роулинг | Гарри Поттер и Дары Смерти [Книга 7] (2011) [m4b|AAC]

в форуме Аудиокниги (AAC, ALAC), Размер: 1.15 ГБ, Здоровье: 100%

Гость

0
11|1

233
8

17 май 2015, 01:01

Гость Перейти к последнему сообщению

В этой теме нет новых непрочитанных сообщений. Скачать торрент Проверен Роулинг Джоан Кэтлин - Гарри Поттер и Дары Смерти [Александр Клюквин, 2011, Фэнтези, 64 kbps]

в форуме Аудиокниги (AAC, ALAC), Размер: 541.65 МБ, Здоровье: 100%

Anonymous

0
10|3

11
0

28 авг 2016, 16:49

Anonymous Перейти к последнему сообщению

В этой теме нет новых непрочитанных сообщений. Скачать торрент Гарри Поттер и орден Феникса / Harry Potter and the Order of the Phoenix (Дэвид Йейтс / David Yates) [2007 г., фэнтези, приключения, семейный, BDRip] Dub

в форуме Фантастика, Фэнтези, Размер: 1.46 ГБ, Здоровье: 100%

Anonymous

0
34|11

43
0

02 апр 2014, 12:07

Anonymous Перейти к последнему сообщению



Сейчас этот форум просматривают: нет зарегистрированных пользователей и гости: 1


Вы не можете начинать темы
Вы не можете отвечать на сообщения
Вы не можете редактировать свои сообщения
Вы не можете удалять свои сообщения
Вы не можете добавлять вложения

Перейти:  

!ВНИМАНИЕ!
 Ресурс не предоставляет электронные версии произведений, а занимается лишь коллекционированием и каталогизацией ссылок, присылаемых и публикуемых на форуме нашими читателями. Если вы являетесь правообладателем какого-либо представленного материала и не желаете чтобы ссылка на него находилась в нашем каталоге, свяжитесь с нами и мы незамедлительно удалим её. Файлы для обмена на трекере предоставлены пользователями сайта, и администрация не несёт ответственности за их содержание. Просьба не заливать файлы, защищенные авторскими правами, а также файлы нелегального содержания!