На всех торрентах на трекере установлена скидка на скачивание в размере 100 процентов(а).
 Возможность скачивания торрента НЕ зависит от ограничений при низком ратио, низком аплоаде, требуемом ратио или требуемом аплоаде.


Начать новую тему Ответить на тему
Статистика раздачи
Размер: 9.5 ГБ | Добавлен: 28 сен 2013, 23:21 | Скачали: 0
Сидеров: 3  [0 байт/сек]    Личеров: 5  [0 байт/сек]
Пред. тема | След. тема 

Автор
Сообщение

СообщениеДобавлено: 28 сен 2013, 23:21 

Дети шпионов 4D / Spy Kids: All the Time in the World in 4D (2011) BDRip 1080p

Русское название: Дети шпионов 4D
Оригинальное название: Spy Kids: All the Time in the World in 4D
Год выпуска: 2011
Жанр: Фантастика, Семейный, Приключения

Описание фильма:
Брат и сестра поневоле должны стать крутыми шпионами, чтобы помешать мечтающему о мировом господстве злодею, и выручить из беды собственную мачеху — секретного суперагента, удалившегося на покой.

Режиссер: Роберт Родригес
Актеры: Роуэн Бланчард, Мэйсон Кук, Джессика Альба, Джоэл МакХэйл, Алекса Вега, Дэрил Сабара, Джереми Пивен, Белль Солорзано, Дженни Солорзано, Чак Кьюро

Продолжительность: 01:28:47
Перевод: Дублированный



Видеокодек: MPEG-4 AVC/H.264
Битрейт видео: ~11300 kbps
Формат 3D: Half OverUnder / Вертикальная анаморфная стереопара
Размер кадра: 1920x1080
Качество видео: BDRip
Аудио1: АС3, Russian, 5.1 channels,640 kbps
Аудио2: DTS Master Audio, Russian, 5.1 channels, 16 bits,1509 Kbps, 48kHz
Аудио3: DTS Hi-Res, English, 5.1 channels, 2046kbps, 48kHz
Субтитры: Руские
Chapters: C оригинального Blu-Ray Disc

Проверено на встроенном плейере ТВ Samsung UE46ES7207
General
Unique ID : 235887380446645989509156547809048257235 (0xB17641C78279B665B5541BE7DBA3E2D3)
Complete name : D:\Downloads\Дети шпионов 4D.2011.1080р.mkv
Format : Matroska
Format version : Version 4 / Version 2
File size : 9.50 GiB
Duration : 1h 28mn
Overall bit rate mode : Variable
Overall bit rate : 15.3 Mbps
Encoded date : UTC 2013-04-25 09:19:53
Writing application : mkvmerge v6.1.0 ('Old Devil') built on Mar 2 2013 14:32:37
Writing library : libebml v1.3.0 + libmatroska v1.4.0

Video
ID : 1
Format : AVC
Format/Info : Advanced Video Codec
Format profile :
Format settings, CABAC : Yes
Format settings, ReFrames : 4 frames
Codec ID : V_MPEG4/ISO/AVC
Duration : 1h 28mn
Width : 1 920 pixels
Height : 1 080 pixels
Display aspect ratio : 16:9
Frame rate mode : Constant
Frame rate : 23.976 fps
Color space : YUV
Chroma subsampling : 4:2:0
Bit depth : 8 bits
Scan type : Progressive
Writing library : x264 core 130 r2273 b3065e6
Encoding settings : cabac=1 / ref=4 / deblock=1:-1:-1 / analyse=0x3:0x113 / me=umh / subme=9 / psy=1 / psy_rd=1.00:0.15 / mixed_ref=1 / me_range=32 / chroma_me=1 / trellis=2 / 8x8dct=1 / cqm=0 / deadzone=21,11 / fast_pskip=1 / chroma_qp_offset=-3 / threads=6 / lookahead_threads=1 / sliced_threads=0 / nr=0 / decimate=1 / interlaced=0 / bluray_compat=0 / constrained_intra=0 / bframes=3 / b_pyramid=2 / b_adapt=2 / b_bias=0 / direct=3 / weightb=1 / open_gop=0 / weightp=2 / keyint=250 / keyint_min=23 / scenecut=40 / intra_refresh=0 / rc_lookahead=50 / rc=crf / mbtree=1 / crf=18.0 / qcomp=0.60 / qpmin=0 / qpmax=69 / qpstep=4 / ip_ratio=1.40 / aq=1:1.00
Language : English
Default : Yes
Forced : No

Audio #1
ID : 2
Format : AC-3
Format/Info : Audio Coding 3
Mode extension : CM (complete main)
Format settings, Endianness : Big
Codec ID : A_AC3
Duration : 1h 28mn
Bit rate mode : Constant
Bit rate : 640 Kbps
Channel(s) : 6 channels
Channel positions : Front: L C R, Side: L R, LFE
Sampling rate : 48.0 KHz
Bit depth : 16 bits
Compression mode : Lossy
Stream size : 407 MiB (4%)
Title : АС3, Russian, 5.1 channels,640 kbps
Language : Russian
Default : Yes
Forced : No

Audio #2
ID : 3
Format : DTS
Format/Info : Digital Theater Systems
Format profile : MA / Core
Mode : 16
Format settings, Endianness : Big
Codec ID : A_DTS
Duration : 1h 28mn
Bit rate mode : Variable
Bit rate : Unknown / 1 509 Kbps
Channel(s) : 6 channels
Channel positions : Front: L C R, Side: L R, LFE
Sampling rate : 48.0 KHz
Bit depth : 16 bits
Compression mode : Lossless / Lossy
Title : DTS Master Audio, Russian, 5.1 channels, 16 bits, 48kHz
Language : Russian
Default : No
Forced : No

Audio #3
ID : 4
Format : DTS
Format/Info : Digital Theater Systems
Format profile : HRA / Core
Mode : 16
Format settings, Endianness : Big
Codec ID : A_DTS
Duration : 1h 28mn
Bit rate mode : Constant
Bit rate : 2 046 Kbps / 1 509 Kbps
Channel(s) : 6 channels
Channel positions : Front: L C R, Side: L R, LFE
Sampling rate : 48.0 KHz
Bit depth : 16 bits / 24 bits
Compression mode : Lossy
Stream size : 1.27 GiB (13%)
Title : DTS Hi-Res, English, 5.1 channels, 2046kbps, 48kHz
Language : English
Default : No
Forced : No

Text
ID : 5
Format : UTF-8
Codec ID : S_TEXT/UTF8
Codec ID/Info : UTF-8 Plain Text
Language : Russian
Default : Yes
Forced : No

Menu
00:00:00.000 : en:00:00:00.000
00:04:21.511 : en:00:04:21.511
00:10:03.686 : en:00:10:03.686
00:16:12.889 : en:00:16:12.889
00:19:44.308 : en:00:19:44.308
00:25:20.477 : en:00:25:20.477
00:31:42.776 : en:00:31:42.776
00:36:54.629 : en:00:36:54.629
00:41:39.247 : en:00:41:39.247
00:47:16.500 : en:00:47:16.500
00:53:54.273 : en:00:53:54.273
00:59:34.654 : en:00:59:34.654
01:05:27.382 : en:01:05:27.382
01:10:21.968 : en:01:10:21.968
01:17:46.203 : en:01:17:46.203
01:22:43.375 : en:01:22:43.375
Скриншоты:



Время раздачи: По мере возможности!!!
загрузка...
Правила, инструкции, FAQ!!!
Торрент  Добавлен [28 сен 2013, 23:21] Скачать торрент
Скачать торрент
[ Размер 24.73 КБ / Просмотров 18 ]

Статус  
 
Размер  9.5 ГБ
Приватный: Нет (DHT включён)
.torrent скачан  0
Как залить торрент? | Как скачать Torrent? | Как смотреть и слушать онлайн?  


     Отправить личное сообщение
   
Страница 1 из 1
Показать сообщения за:  Поле сортировки  
Начать новую тему Ответить на тему

   Похожие торренты   Автор   Ответы   Просмотры   Последнее сообщение 
В этой теме нет новых непрочитанных сообщений. Скачать торрент Проверен Тор 2: Царство тьмы / Thor: The Dark World (2013) BDRip [1080p] 3D [Вертикальная анаморфная стереопара]

в форуме HD-Video в 3D, Размер: 7.77 ГБ, Здоровье: 100%

Anonymous

0
37|1

262
1

12 июл 2015, 12:34

Anonymous Перейти к последнему сообщению

В этой теме нет новых непрочитанных сообщений. Скачать торрент Дети шпионов 3: Игра окончена / Spy Kids 3-D: Game Over (2003) BDRip

в форуме Фантастика, Фэнтези, Размер: 1.45 ГБ, Здоровье: 100%

Anonymous

0
79|5

25
2839

20 янв 2014, 13:15

Anonymous Перейти к последнему сообщению

В этой теме нет новых непрочитанных сообщений. Скачать торрент Проверен Врата дракона / Long men fei jia / The Flying Swords of Dragon Gate (2011) BDRip [1080p] 3D [Вертикальная анаморфная стереопара]

в форуме HD-Video в 3D, Размер: 11.67 ГБ, Здоровье: ???%

Anonymous

0
0|1

62
0

12 июл 2014, 11:20

Anonymous Перейти к последнему сообщению

В этой теме нет новых непрочитанных сообщений. Скачать торрент Четверо 2 / Si Da Ming Bu 2 / The Four 2 (2013) BDRip [1080p] 3D [Вертикальная анаморфная стереопара]

в форуме HD-Video в 3D, Размер: 16.87 ГБ, Здоровье: 100%

Anonymous

0
23|2

111
0

23 мар 2014, 00:18

Anonymous Перейти к последнему сообщению

В этой теме нет новых непрочитанных сообщений. Скачать торрент Лучшее в 3Д / Best of 3D (2012 - 2013) BDRip [1080p] 3D [Вертикальная анаморфная стереопара]

в форуме HD-Video в 3D, Размер: 35.86 ГБ, Здоровье: 100%

Anonymous

0
58|4

177
0

09 янв 2014, 22:26

Anonymous Перейти к последнему сообщению



Сейчас этот форум просматривают: нет зарегистрированных пользователей и гости: 1


Вы не можете начинать темы
Вы не можете отвечать на сообщения
Вы не можете редактировать свои сообщения
Вы не можете удалять свои сообщения
Вы не можете добавлять вложения

Перейти:  

!ВНИМАНИЕ!
 Ресурс не предоставляет электронные версии произведений, а занимается лишь коллекционированием и каталогизацией ссылок, присылаемых и публикуемых на форуме нашими читателями. Если вы являетесь правообладателем какого-либо представленного материала и не желаете чтобы ссылка на него находилась в нашем каталоге, свяжитесь с нами и мы незамедлительно удалим её. Файлы для обмена на трекере предоставлены пользователями сайта, и администрация не несёт ответственности за их содержание. Просьба не заливать файлы, защищенные авторскими правами, а также файлы нелегального содержания!