На всех торрентах на трекере установлена скидка на скачивание в размере 100 процентов(а).
 Возможность скачивания торрента НЕ зависит от ограничений при низком ратио, низком аплоаде, требуемом ратио или требуемом аплоаде.


Начать новую тему Ответить на тему
Статистика раздачи
Размер: 30.41 ГБ | Добавлен: 28 сен 2013, 23:20 | Скачали: 0
Сидеров: 3  [0 байт/сек]    Личеров: 1  [0 байт/сек]
Пред. тема | След. тема 

Автор
Сообщение

СообщениеДобавлено: 28 сен 2013, 23:20 

Хоббит: Нежданное путешествие / The Hobbit: An Unexpected Journey (2012) BDRip

«From the smallest beginnings come the greatest legends.»

Русское название: Хоббит: Нежданное путешествие
Оригинальное название: The Hobbit: An Unexpected Journey
Год выпуска: 2012
Жанр: Фэнтези, Приключения, ...

Описание фильма:
Фильм повествует о путешествии Бильбо Бэггинса, который пускается в грандиозный поход, целью которого является отвоевание утраченного королевства гномов Эребор у зловещего дракона Смауга. Совершенно неожиданно с хоббитом налаживает контакт волшебник Гэндальф Серый. Так Бильбо находит себя, присоединяясь к компании тринадцати гномов, возглавляемых легендарным воином, Торином Дубощитом. Их путешествие проляжет через Дикий Край, через предательские земли, населенные гоблинами и орками, смертоносными варгами и гигантскими пауками, народом, меняющим шкуры, и волшебниками.
И хотя их цель находится на Востоке среди пустошей Одинокой Горы, сначала им придется выбраться из туннелей гоблинов, где Бильбо встретит существо, которое изменит его жизнь навсегда… Голлума.
Здесь, один на один с Голлумом, на берегу подземного озера, непритязательный Бильбо Бэггинс обнаружит не только скрытые в глубине души хитрость и отвагу, которые удивят даже его, но и завладеет «прелестным» колечком Голлума, которое обладает нежданными и полезными свойствами… Простое золотое кольцо, c которым связана судьба всего Средиземья, нитями, о которых Бильбо не мог даже вообразить.
Режиссер: Питер Джексон
Актеры: Мартин Фриман, Иэн МакКеллен, Ричард Армитидж, Джеймс Несбитт, Кен Стотт, Грэм МакТавиш, Дин О’Горман, Эйдан Тернер, Джед Брофи, Марк Хэдлоу
Роли дублировали: Илья Хвостиков, Василий Бочкарев, Игорь Балалаев, Владислав Копп, Алексей Борзунов
Продолжительность: 02:49:37
Перевод: Дублированный
Язык субтитров: Русский, Украинский
Вид субтитров: Вшитые отключаемые (на речь эльфов и троллей)

Дата мировой премьеры: 28 ноября 2012
Дата российской премьеры: 19 декабря 2012, «Каро-Премьер»
Дата выхода DVD релиза: 11 апреля 2013, «CP Дистрибуция»
Дата выхода BLU-RAY релиза: 11 апреля 2013, «CP Дистрибуция»
Видеокодек: MPEG-4 AVC/H.264
Битрейт видео: ~23,6 Мбит/сек
Размер кадра: 1920x1600
Качество видео: BDRip
Аудио №1: AC3 5.1 448 kbps /Русский/
Аудио №2: AC3 5.1 448 kbps /Украинский/
Аудио №3: AC3 5.1 640 kbps /Английский/
Общее
Уникальный идентификатор : 173739964969309983596808193359093301501 (0x82B519A09EBF66FDB131D7C408C600FD)
Полное имя : G:\Full 3Drip\HOBBIT_3D.mkv
Формат : Matroska
Версия формата : Version 2
Размер файла : 30,4 Гбайт
Продолжительность : 2 ч. 49 м.
Общий поток : 25,7 Мбит/сек
Название фильма : HOBBIT_3D_FULL_O/U
Дата кодирования : UTC 2013-05-10 04:44:11
Программа кодирования : mkvmerge v5.7.0 ('The Whirlwind') built on Aug 7 2012 14:11:40
Библиотека кодирования : libebml v1.2.3 + libmatroska v1.3.0

Видео
Идентификатор : 1
Формат : AVC
Формат/Информация : Advanced Video Codec
Профиль формата :
Параметр CABAC формата : Да
Параметр ReFrames формата : 4 кадра
Идентификатор кодека : V_MPEG4/ISO/AVC
Продолжительность : 2 ч. 49 м.
Битрейт : 23,6 Мбит/сек
Ширина : 1920 пикселей
Высота : 1600 пикселей
Соотношение сторон : 1,200
Соотношение сторон в оригинале : 16:9
Режим частоты кадров : Постоянный
Частота кадров : 23,976 кадра/сек
Цветовое пространство : YUV
Субдискретизация насыщенности : 4:2:0
Битовая глубина : 8 бит
Тип развёртки : Прогрессивная
Бит/(Пиксели*Кадры) : 0.321
Размер потока : 28,0 Гбайт (92%)
Заголовок : rip by I/N
Библиотека кодирования : x264 core 128 r2216M 198a7ea
Настройки программы : cabac=1 / ref=4 / deblock=1:-2:-2 / analyse=0x3:0x133 / me=umh / subme=9 / psy=1 / psy_rd=0.40:0.15 / mixed_ref=1 / me_range=16 / chroma_me=1 / trellis=2 / 8x8dct=1 / cqm=0 / deadzone=6,6 / fast_pskip=1 / chroma_qp_offset=-3 / threads=4 / lookahead_threads=1 / sliced_threads=0 / nr=0 / decimate=0 / interlaced=0 / bluray_compat=0 / constrained_intra=0 / bframes=4 / b_pyramid=2 / b_adapt=2 / b_bias=0 / direct=1 / weightb=1 / open_gop=0 / weightp=2 / keyint=230 / keyint_min=23 / scenecut=40 / intra_refresh=0 / rc_lookahead=60 / rc=crf / mbtree=1 / crf=18.0 / qcomp=0.80 / qpmin=0 / qpmax=69 / qpstep=4 / vbv_maxrate=40000 / vbv_bufsize=30000 / crf_max=30.0 / nal_hrd=none / ip_ratio=1.10 / aq=1:0.70
Default : Да
Forced : Да

Аудио #1
Идентификатор : 2
Формат : AC-3
Формат/Информация : Audio Coding 3
Расширение режима : CM (complete main)
Параметр Endianness формата : Big
Идентификатор кодека : A_AC3
Продолжительность : 2 ч. 49 м.
Вид битрейта : Постоянный
Битрейт : 448 Кбит/сек
Каналы : 6 каналов
Расположение каналов : Front: L C R, Side: L R, LFE
Частота : 48,0 КГц
Битовая глубина : 16 бит
Метод сжатия : С потерями
Размер потока : 544 Мбайт (2%)
Заголовок : Дубляж
Язык : Russian
Default : Да
Forced : Да

Аудио #2
Идентификатор : 3
Формат : AC-3
Формат/Информация : Audio Coding 3
Расширение режима : CM (complete main)
Параметр Endianness формата : Big
Идентификатор кодека : A_AC3
Продолжительность : 2 ч. 49 м.
Вид битрейта : Постоянный
Битрейт : 448 Кбит/сек
Каналы : 6 каналов
Расположение каналов : Front: L C R, Side: L R, LFE
Частота : 48,0 КГц
Битовая глубина : 16 бит
Метод сжатия : С потерями
Размер потока : 544 Мбайт (2%)
Заголовок : Дубляж
Язык : Ukrainian
Default : Нет
Forced : Нет

Аудио #3
Идентификатор : 4
Формат : AC-3
Формат/Информация : Audio Coding 3
Расширение режима : CM (complete main)
Параметр Endianness формата : Big
Идентификатор кодека : A_AC3
Продолжительность : 2 ч. 49 м.
Вид битрейта : Постоянный
Битрейт : 640 Кбит/сек
Каналы : 6 каналов
Расположение каналов : Front: L C R, Side: L R, LFE
Частота : 48,0 КГц
Битовая глубина : 16 бит
Метод сжатия : С потерями
Размер потока : 776 Мбайт (2%)
Заголовок : Original
Язык : English
Default : Нет
Forced : Нет

Текст #1
Идентификатор : 5
Формат : UTF-8
Идентификатор кодека : S_TEXT/UTF8
Идентификатор кодека/Информация : UTF-8 Plain Text
Язык : Russian
Default : Да
Forced : Да

Текст #2
Идентификатор : 6
Формат : UTF-8
Идентификатор кодека : S_TEXT/UTF8
Идентификатор кодека/Информация : UTF-8 Plain Text
Язык : Ukrainian
Default : Нет
Forced : Нет

Меню
00:00:00.000 : en:(01)00:00:00:000
00:08:52.073 : en:(02)00:08:52:073
00:12:59.695 : en:(03)00:12:59:695
00:16:35.619 : en:(04)00:16:35:619
00:20:51.917 : en:(05)00:20:51:917
00:25:10.509 : en:(06)00:25:10:509
00:33:16.411 : en:(07)00:33:16:411
00:38:29.098 : en:(08)00:38:29:098
00:43:42.995 : en:(09)00:43:42:995
00:50:15.303 : en:(10)00:50:15:303
00:55:20.275 : en:(11)00:55:20:275
00:57:08.258 : en:(12)00:57:08:258
01:07:56.030 : en:(13)01:07:56:030
01:12:15.706 : en:(14)01:12:15:706
01:16:08.105 : en:(15)01:16:08:105
01:22:11.384 : en:(16)01:22:11:384
01:28:55.288 : en:(17)01:28:55:288
01:32:09.023 : en:(18)01:32:09:023
01:33:48.164 : en:(19)01:33:48:164
01:40:35.654 : en:(20)01:40:35:654
01:43:13.020 : en:(21)01:43:13:020
01:49:19.511 : en:(22)01:49:19:511
01:54:11.427 : en:(23)01:54:11:427
01:57:05.101 : en:(24)01:57:05:101
02:10:35.786 : en:(25)02:10:35:786
02:12:33.987 : en:(26)02:12:33:987
02:13:45.726 : en:(27)02:13:45:726
02:18:07.737 : en:(28)02:18:07:737
02:20:17.784 : en:(29)02:20:17:784
02:23:07.704 : en:(30)02:23:07:704
02:34:07.821 : en:(31)02:34:07:821
02:39:37.109 : en:(32)02:39:37:109
02:49:37.167 : en:(33)02:49:37:167
На встроенных ТВ-плейерах показывать НЕ будет!!!

Скриншоты:


Данный рип сделан в формате 16:9 - специально для корректного воспроизведения 3Dсофт-плеерами сразу в полный экран.
Воспроизведение проверенно: Arcsoft TMT6 и Cyberlink PowerDVD11
Всем приятного просмотра!
Время раздачи: 24/7 - круглосуточно до 10 скачавших
загрузка...
Правила, инструкции, FAQ!!!
Торрент  Добавлен [28 сен 2013, 23:20] Скачать торрент
Скачать торрент
[ Размер 76.99 КБ / Просмотров 13 ]

Статус  
 
Размер  30.41 ГБ
Приватный: Нет (DHT включён)
.torrent скачан  0
Как залить торрент? | Как скачать Torrent? | Как смотреть и слушать онлайн?  


     Отправить личное сообщение
   
Страница 1 из 1
Показать сообщения за:  Поле сортировки  
Начать новую тему Ответить на тему

   Похожие торренты   Автор   Ответы   Просмотры   Последнее сообщение 
В этой теме нет новых непрочитанных сообщений. Скачать торрент Проверен [VIDEO] Хоббит: Нежданное путешествие / The Hobbit: An Unexpected Journey (Питер Джексон / Peter Jackson) [2012г, США, Новая Зеландия, фэнтези, приключения, BDRip][MP4, 640x] Dub

в форуме Видео для смартфонов и КПК, Размер: 1.55 ГБ, Здоровье: 100%

Anonymous

0
54|17

55
0

02 авг 2014, 17:05

Anonymous Перейти к последнему сообщению

В этой теме нет новых непрочитанных сообщений. Скачать торрент Хоббит: Пустошь Смауга / The Hobbit: The Desolation of Smaug (2013) BDRip [1080p] 3D [Вертикальная анаморфная стереопара] [VO]

в форуме HD-Video в 3D, Размер: 14.21 ГБ, Здоровье: 100%

Anonymous

0
28|1

158
0

22 мар 2014, 09:05

Anonymous Перейти к последнему сообщению

В этой теме нет новых непрочитанных сообщений. Скачать торрент Хоббит: Пустошь Смауга / The Hobbit: The Desolation of Smaug (2013) BDRip [1080p] 3D [Горизонтальная анаморфная стереопара] [Line]

в форуме HD-Video в 3D, Размер: 15.98 ГБ, Здоровье: 100%

Anonymous

0
37|2

84
1

22 мар 2014, 09:01

Anonymous Перейти к последнему сообщению

В этой теме нет новых непрочитанных сообщений. Скачать торрент Проверен Путешествие 2: Таинственный остров в 3Д / Journey 2: The Mysterious Island 3D (Брэд Пейтон / Brad Peyton) [2012, Фантастика, Приключения, Комедия, Семейный, BDrip-AVC] Half OverUnder / Вертикальная анаморфная стереопара

в форуме HD-Video в 3D, Размер: 13.46 ГБ, Здоровье: 100%

Anonymous

0
56|19

129
0

10 июл 2014, 14:27

Anonymous Перейти к последнему сообщению

В этой теме нет новых непрочитанных сообщений. Скачать торрент Проверен Хоббит: Трилогия / The Hobbit: Trilogy (2012-2014) BDRip 1080p от HDReactor | Extended Cut

в форуме 720p | 1080p, Размер: 34.85 ГБ, Здоровье: 100%

Anonymous

0
404|394

255
399

15 ноя 2015, 23:59

Anonymous Перейти к последнему сообщению



Сейчас этот форум просматривают: нет зарегистрированных пользователей и гости: 1


Вы не можете начинать темы
Вы не можете отвечать на сообщения
Вы не можете редактировать свои сообщения
Вы не можете удалять свои сообщения
Вы не можете добавлять вложения

Перейти:  

!ВНИМАНИЕ!
 Ресурс не предоставляет электронные версии произведений, а занимается лишь коллекционированием и каталогизацией ссылок, присылаемых и публикуемых на форуме нашими читателями. Если вы являетесь правообладателем какого-либо представленного материала и не желаете чтобы ссылка на него находилась в нашем каталоге, свяжитесь с нами и мы незамедлительно удалим её. Файлы для обмена на трекере предоставлены пользователями сайта, и администрация не несёт ответственности за их содержание. Просьба не заливать файлы, защищенные авторскими правами, а также файлы нелегального содержания!