На всех торрентах на трекере установлена скидка на скачивание в размере 100 процентов(а).
 Возможность скачивания торрента НЕ зависит от ограничений при низком ратио, низком аплоаде, требуемом ратио или требуемом аплоаде.


Начать новую тему Ответить на тему
Статистика раздачи
Размер: 12.02 ГБ | Добавлен: 28 сен 2013, 23:20 | Скачали: 0
Сидеров: 0  [0 байт/сек]    Личеров: 1  [0 байт/сек]
Пред. тема | След. тема 

Автор
Сообщение

СообщениеДобавлено: 28 сен 2013, 23:20 

Другой мир: Пробуждение / Underworld: Awakening (2012) BDRip

«Месть проснулась»

Русское название: Другой мир: Пробуждение
Оригинальное название: Underworld: Awakening
Год выпуска: 2012
Жанр: Ужасы, Фэнтези, Боевик

Описание фильма:
Через 12 лет в состоянии, близком к коматозному, Селин узнает о существовании родной дочери Евы — гибрида вампира и ликана. И Селин необходимо помешать БиоКом создать суперликанов, которые убьют их всех.
Режиссер: Монс Морлинд, Бьёрн Стейн
Актеры: Кейт Бекинсейл, Стивен Ри, Майкл Или, Тео Джеймс, Индиа Айсли, Чарльз Дэнс, Сандрин Холт, Кристен Холден-Рид, Джейкоб Блэр, Адам Рейд
Роли дублировали: Светлана Кузнецова, Сергей Куприянов, Виктор Костецкий, Александр Трофимов, Олег Тилькин
Продолжительность: 01:28:34
Перевод: Дублированный


Рейтинг PG - лицам до 17 лет обязательно присутствие взрослого
Возраст 18+ - зрителям, достигшим 18 лет
Дата мировой премьеры: 19 января 2012
Дата российской премьеры: 19 января 2012, «WDSSPR»
Дата выхода DVD релиза: 21 февраля 2012, «Columbia/Sony»
Дата выхода BLU-RAY релиза: 15 мая 2012, «Columbia/Sony»
Видеокодек: MPEG-4 AVC/H.264
Битрейт видео: ~17,1 Мбит/сек
Размер кадра: 1920x1600
Качество видео: BDRip
Аудио №1: AC3 5.1 640 kbps /Русский/
Аудио №2: AC3 5.1 640 kbps /Украинский/
Аудио №3: AC3 5.1 640 kbps /Английский/
Общее
Уникальный идентификатор : 252653663737254888548335876594706698908 (0xBE13535E217D2C92B82D9DF5AEEC529C)
Полное имя : G:\Full 3Drip\UNDRWRLD_AWKNNG_3D.mkv
Формат : Matroska
Версия формата : Version 2
Размер файла : 12,0 Гбайт
Продолжительность : 1 ч. 28 м.
Общий поток : 19,4 Мбит/сек
Название фильма : UNDRWRLD_AWKNNG_3D_FULL_O/U
Дата кодирования : UTC 2013-05-14 13:34:59
Программа кодирования : mkvmerge v5.7.0 ('The Whirlwind') built on Aug 7 2012 14:11:40
Библиотека кодирования : libebml v1.2.3 + libmatroska v1.3.0

Видео
Идентификатор : 1
Формат : AVC
Формат/Информация : Advanced Video Codec
Профиль формата :
Параметр CABAC формата : Да
Параметр ReFrames формата : 6 кадров
Идентификатор кодека : V_MPEG4/ISO/AVC
Продолжительность : 1 ч. 28 м.
Битрейт : 17,1 Мбит/сек
Ширина : 1920 пикселей
Высота : 1600 пикселей
Соотношение сторон : 1,200
Соотношение сторон в оригинале : 16:9
Режим частоты кадров : Постоянный
Частота кадров : 23,976 кадра/сек
Цветовое пространство : YUV
Субдискретизация насыщенности : 4:2:0
Битовая глубина : 8 бит
Тип развёртки : Прогрессивная
Бит/(Пиксели*Кадры) : 0.232
Размер потока : 10,6 Гбайт (88%)
Заголовок : rip by I/N
Библиотека кодирования : x264 core 128 r2216M 198a7ea
Настройки программы : cabac=1 / ref=6 / deblock=1:-2:-2 / analyse=0x3:0x133 / me=umh / subme=9 / psy=1 / psy_rd=0.40:0.15 / mixed_ref=1 / me_range=24 / chroma_me=1 / trellis=2 / 8x8dct=1 / cqm=0 / deadzone=6,6 / fast_pskip=1 / chroma_qp_offset=-3 / threads=4 / lookahead_threads=1 / sliced_threads=0 / nr=0 / decimate=0 / interlaced=0 / bluray_compat=0 / constrained_intra=0 / bframes=6 / b_pyramid=2 / b_adapt=2 / b_bias=0 / direct=1 / weightb=1 / open_gop=0 / weightp=2 / keyint=230 / keyint_min=23 / scenecut=40 / intra_refresh=0 / rc_lookahead=60 / rc=crf / mbtree=1 / crf=18.0 / qcomp=0.80 / qpmin=0 / qpmax=69 / qpstep=4 / vbv_maxrate=40000 / vbv_bufsize=30000 / crf_max=30.0 / nal_hrd=none / ip_ratio=1.10 / aq=1:0.70
Default : Да
Forced : Да

Аудио #1
Идентификатор : 2
Формат : AC-3
Формат/Информация : Audio Coding 3
Расширение режима : CM (complete main)
Параметр Endianness формата : Big
Идентификатор кодека : A_AC3
Продолжительность : 1 ч. 28 м.
Вид битрейта : Постоянный
Битрейт : 640 Кбит/сек
Каналы : 6 каналов
Расположение каналов : Front: L C R, Side: L R, LFE
Частота : 48,0 КГц
Битовая глубина : 16 бит
Метод сжатия : С потерями
Размер потока : 405 Мбайт (3%)
Заголовок : Дубляж
Язык : Russian
Default : Да
Forced : Да

Аудио #2
Идентификатор : 3
Формат : AC-3
Формат/Информация : Audio Coding 3
Расширение режима : CM (complete main)
Параметр Endianness формата : Big
Идентификатор кодека : A_AC3
Продолжительность : 1 ч. 28 м.
Вид битрейта : Постоянный
Битрейт : 640 Кбит/сек
Каналы : 6 каналов
Расположение каналов : Front: L C R, Side: L R, LFE
Частота : 48,0 КГц
Битовая глубина : 16 бит
Метод сжатия : С потерями
Размер потока : 405 Мбайт (3%)
Заголовок : Дубляж
Язык : Ukrainian
Default : Нет
Forced : Нет

Аудио #3
Идентификатор : 4
Формат : AC-3
Формат/Информация : Audio Coding 3
Расширение режима : CM (complete main)
Параметр Endianness формата : Big
Идентификатор кодека : A_AC3
Продолжительность : 1 ч. 28 м.
Вид битрейта : Постоянный
Битрейт : 640 Кбит/сек
Каналы : 6 каналов
Расположение каналов : Front: L C R, Side: L R, LFE
Частота : 48,0 КГц
Битовая глубина : 16 бит
Метод сжатия : С потерями
Размер потока : 405 Мбайт (3%)
Заголовок : Original
Язык : English
Default : Нет
Forced : Нет

Меню
00:00:00.000 : en:(01)00:00:00:000
00:04:26.057 : en:(02)00:04:26:057
00:07:45.339 : en:(03)00:07:45:339
00:16:20.187 : en:(04)00:16:20:187
00:21:11.812 : en:(05)00:21:11:812
00:24:49.988 : en:(06)00:24:49:988
00:30:29.828 : en:(07)00:30:29:828
00:35:31.754 : en:(08)00:35:31:754
00:40:04.944 : en:(09)00:40:04:944
00:45:23.929 : en:(10)00:45:23:929
00:52:30.730 : en:(11)00:52:30:730
00:57:21.563 : en:(12)00:57:21:563
01:02:53.936 : en:(13)01:02:53:936
01:07:43.726 : en:(14)01:07:43:726
01:12:18.500 : en:(15)01:12:18:500
01:16:41.430 : en:(16)01:16:41:430
На встроенных ТВ-плейерах показывать НЕ будет!!!

Скриншоты:


Данный рип сделан в формате 16:9 - специально для корректного воспроизведения 3Dсофт-плеерами сразу в полный экран.
Воспроизведение проверенно: Arcsoft TMT6 и Cyberlink PowerDVD11
Всем приятного просмотра!
Время раздачи: 24/7 - круглосуточно до 10 скачавших
загрузка...
Правила, инструкции, FAQ!!!
Торрент  Добавлен [28 сен 2013, 23:20] Скачать торрент
Скачать торрент
[ Размер 30.99 КБ / Просмотров 18 ]

Статус  
 
Размер  12.02 ГБ
Приватный: Нет (DHT включён)
.torrent скачан  0
Как залить торрент? | Как скачать Torrent? | Как смотреть и слушать онлайн?  


     Отправить личное сообщение
   
Страница 1 из 1
Показать сообщения за:  Поле сортировки  
Начать новую тему Ответить на тему

   Похожие торренты   Автор   Ответы   Просмотры   Последнее сообщение 
В этой теме нет новых непрочитанных сообщений. Скачать торрент Проверен [MP4 176х144] Другой мир: Пробуждение / Underworld: Awakening (2012) DVDRip

в форуме Видео для смартфонов и КПК, Размер: 190.57 МБ, Здоровье: ???%

Anonymous

0
0|1

61
0

25 окт 2014, 23:28

Anonymous Перейти к последнему сообщению

В этой теме нет новых непрочитанных сообщений. Скачать торрент Проверен Другой Мир: Квадрология / Underworld: Quadrilogy (2003/2006/2009/2012) BDRip [1080p]

в форуме Квадралогии, Размер: 28.44 ГБ, Здоровье: ???%

Anonymous

0
0|1

268
2

07 окт 2014, 00:12

Anonymous Перейти к последнему сообщению

В этой теме нет новых непрочитанных сообщений. Скачать торрент Лучшее в 3Д / Best of 3D (2012 - 2013) BDRip [1080p] 3D [Вертикальная анаморфная стереопара]

в форуме HD-Video в 3D, Размер: 35.86 ГБ, Здоровье: 100%

Anonymous

0
60|4

178
1

09 янв 2014, 22:26

Anonymous Перейти к последнему сообщению

В этой теме нет новых непрочитанных сообщений. Скачать торрент Проверен Раскрашенная кожа 2 / Hua Pi 2 / Painted Skin: The Resurrection (2012) BDRip [1080p] 3D [Вертикальная анаморфная стереопара]

в форуме HD-Video в 3D, Размер: 8.83 ГБ, Здоровье: 100%

Anonymous

0
3|1

58
0

16 июл 2014, 08:42

Anonymous Перейти к последнему сообщению

В этой теме нет новых непрочитанных сообщений. Скачать торрент Проверен От винта в 3Д / 3D (Ольга Лопато) [2012, Мультфильм, Комедия, Приключения, BDrip, 1080p] OverUnder / Вертикальная стереопара

в форуме 3D Мультфильмы, Размер: 7.17 ГБ, Здоровье: 0%

Anonymous

0
0|0

5
0

07 сен 2016, 18:18

Anonymous Перейти к последнему сообщению



Сейчас этот форум просматривают: нет зарегистрированных пользователей и гости: 1


Вы не можете начинать темы
Вы не можете отвечать на сообщения
Вы не можете редактировать свои сообщения
Вы не можете удалять свои сообщения
Вы не можете добавлять вложения

Перейти:  

!ВНИМАНИЕ!
 Ресурс не предоставляет электронные версии произведений, а занимается лишь коллекционированием и каталогизацией ссылок, присылаемых и публикуемых на форуме нашими читателями. Если вы являетесь правообладателем какого-либо представленного материала и не желаете чтобы ссылка на него находилась в нашем каталоге, свяжитесь с нами и мы незамедлительно удалим её. Файлы для обмена на трекере предоставлены пользователями сайта, и администрация не несёт ответственности за их содержание. Просьба не заливать файлы, защищенные авторскими правами, а также файлы нелегального содержания!