На всех торрентах на трекере установлена скидка на скачивание в размере 100 процентов(а).
 Возможность скачивания торрента НЕ зависит от ограничений при низком ратио, низком аплоаде, требуемом ратио или требуемом аплоаде.


Начать новую тему Ответить на тему
Статистика раздачи
Размер: 15.82 ГБ | Добавлен: 28 сен 2013, 23:20 | Скачали: 1
Сидеров: 3  [0 байт/сек]    Личеров: 1  [0 байт/сек]
Пред. тема | След. тема 

Автор
Сообщение

СообщениеДобавлено: 28 сен 2013, 23:20 

Битва Титанов / Clash of the Titans (2010) BDRip
«Легенды оживают в 3D»

Год выпуска: 2010
Жанр: Фэнтези, Боевик, Приключения

Описание фильма:
Персей, сын бога, воспитанный человеком, не смог защитить свою семью от Аида, мстительного повелителя подземного мира. Теперь ему уже нечего терять, и он добровольно соглашается возглавить опасную миссию, чтобы одержать победу над Аидом до того, как тот отберет власть у Зевса и выпустит демонов подземного царства на Землю.
Возглавляя отряд бесстрашных воинов, Персей отправляется в рискованное путешествие по лабиринту запретных миров. Чтобы победить в свирепой схватке с жуткими демонами и злобными чудовищами, противостоять злому року и стать хозяином своей судьбы, он должен осознать и принять свою божественную силу.

Режиссер: Луи Летерье
Актеры: Сэм Уортингтон, Мадс Миккельсен, Джемма Артертон, Рэйф Файнс, Лиам Нисон, Алекса Давалос, Джейсон Флеминг, Пит Постлетуэйт, Лиам Каннингэм, Ашраф Бархо
Роли дублировали: Сергей Бурунов, Илья Исаев, Елена Ивасишина, Владимир Зайцев, Алексей Рязанцев

Продолжительность: 01:46:07
Качество видео: BDRip
Перевод: Дублированный / Одноголосый закадровый


Рейтинг PG-18 - Детям до 18 лет просмотр не желателен
Возраст 13+ - зрителям, достигшим 13 лет
Дата мировой премьеры: 1 апреля 2010
Дата российской премьеры: 8 апреля 2010, «Каро-Премьер»
Дата выхода DVD релиза: 24 августа 2010, «Юниверсал Пикчерс Рус»
Дата выхода BLU-RAY релиза: 24 августа 2010, «Юниверсал Пикчерс Рус»

Видеокодек: MPEG-4 AVC/H.264
Битрейт видео: ~18,7 Мбит/сек
Размер кадра: 1920x1600
Аудио 1: AC3 5.1, 448 kbps, [Русский - дублированный]
Аудио 2: AC3 5.1, 640 kbps, [Русский - одноголосый закадровый «А. Гаврилов»]
Аудио 3: AC3 5.1, 448 kbps, [Украинский - дублированный]
Аудио 4: AC3 5.1, 640 kbps, [Английский]
Общее
Уникальный идентификатор : 235698372950961001446889363145270463303 (0xB151DAFD85FFE3EC9A31C13C5E038B47)
Полное имя : D:\Full 3Drip\CLASH_OF_THE_TITANS_3D.mkv
Формат : Matroska
Версия формата : Version 2
Размер файла : 15,8 Гбайт
Продолжительность : 1 ч. 46 м.
Общий поток : 21,3 Мбит/сек
Название фильма : CLASH_OF_THE_TITANS_3D_FULL_O/U
Дата кодирования : UTC 2013-09-01 06:20:09
Программа кодирования : mkvmerge v5.7.0 ('The Whirlwind') built on Aug 7 2012 14:11:40
Библиотека кодирования : libebml v1.2.3 + libmatroska v1.3.0

Видео
Идентификатор : 1
Формат : AVC
Формат/Информация : Advanced Video Codec
Профиль формата :
Параметр CABAC формата : Да
Параметр ReFrames формата : 6 кадров
Идентификатор кодека : V_MPEG4/ISO/AVC
Продолжительность : 1 ч. 46 м.
Битрейт : 18,7 Мбит/сек
Ширина : 1920 пикселей
Высота : 1600 пикселей
Соотношение сторон : 1,200
Соотношение сторон в оригинале : 16:9
Режим частоты кадров : Постоянный
Частота кадров : 23,976 кадра/сек
Цветовое пространство : YUV
Субдискретизация насыщенности : 4:2:0
Битовая глубина : 8 бит
Тип развёртки : Прогрессивная
Бит/(Пиксели*Кадры) : 0.254
Размер потока : 13,9 Гбайт (88%)
Заголовок : rip by I/N
Библиотека кодирования : x264 core 128 r2216M 198a7ea
Настройки программы : cabac=1 / ref=6 / deblock=1:-1:-1 / analyse=0x3:0x133 / me=esa / subme=10 / psy=1 / psy_rd=1.00:0.15 / mixed_ref=1 / me_range=24 / chroma_me=1 / trellis=2 / 8x8dct=1 / cqm=0 / deadzone=21,11 / fast_pskip=1 / chroma_qp_offset=-3 / threads=8 / lookahead_threads=1 / sliced_threads=0 / nr=0 / decimate=1 / interlaced=0 / bluray_compat=0 / constrained_intra=0 / bframes=8 / b_pyramid=2 / b_adapt=2 / b_bias=0 / direct=3 / weightb=1 / open_gop=0 / weightp=2 / keyint=230 / keyint_min=23 / scenecut=40 / intra_refresh=0 / rc_lookahead=60 / rc=crf / mbtree=1 / crf=18.0 / qcomp=0.60 / qpmin=0 / qpmax=69 / qpstep=4 / ip_ratio=1.40 / aq=1:1.00
Default : Да
Forced : Нет

Аудио #1
Идентификатор : 2
Формат : AC-3
Формат/Информация : Audio Coding 3
Расширение режима : CM (complete main)
Параметр Endianness формата : Big
Идентификатор кодека : A_AC3
Продолжительность : 1 ч. 46 м.
Вид битрейта : Постоянный
Битрейт : 448 Кбит/сек
Каналы : 6 каналов
Расположение каналов : Front: L C R, Side: L R, LFE
Частота : 48,0 КГц
Битовая глубина : 16 бит
Метод сжатия : С потерями
Размер потока : 340 Мбайт (2%)
Заголовок : Дубляж
Язык : Russian
Default : Да
Forced : Нет

Аудио #2
Идентификатор : 3
Формат : AC-3
Формат/Информация : Audio Coding 3
Расширение режима : CM (complete main)
Параметр Endianness формата : Big
Идентификатор кодека : A_AC3
Продолжительность : 1 ч. 46 м.
Вид битрейта : Постоянный
Битрейт : 640 Кбит/сек
Каналы : 6 каналов
Расположение каналов : Front: L C R, Side: L R, LFE
Частота : 48,0 КГц
Битовая глубина : 16 бит
Метод сжатия : С потерями
Размер потока : 486 Мбайт (3%)
Заголовок : VO - Гаврилов
Язык : Russian
Default : Нет
Forced : Нет

Аудио #3
Идентификатор : 4
Формат : AC-3
Формат/Информация : Audio Coding 3
Расширение режима : CM (complete main)
Параметр Endianness формата : Big
Идентификатор кодека : A_AC3
Продолжительность : 1 ч. 46 м.
Вид битрейта : Постоянный
Битрейт : 448 Кбит/сек
Каналы : 6 каналов
Расположение каналов : Front: L C R, Side: L R, LFE
Частота : 48,0 КГц
Битовая глубина : 16 бит
Метод сжатия : С потерями
Размер потока : 340 Мбайт (2%)
Заголовок : Дубляж
Язык : Ukrainian
Default : Нет
Forced : Нет

Аудио #4
Идентификатор : 5
Формат : AC-3
Формат/Информация : Audio Coding 3
Расширение режима : CM (complete main)
Параметр Endianness формата : Big
Идентификатор кодека : A_AC3
Продолжительность : 1 ч. 46 м.
Вид битрейта : Постоянный
Битрейт : 640 Кбит/сек
Каналы : 6 каналов
Расположение каналов : Front: L C R, Side: L R, LFE
Частота : 48,0 КГц
Битовая глубина : 16 бит
Метод сжатия : С потерями
Размер потока : 486 Мбайт (3%)
Заголовок : Original
Язык : English
Default : Нет
Forced : Нет

Меню
00:00:00.000 : en:(01)00:00:00:000
00:05:39.589 : en:(02)00:05:39:589
00:10:07.189 : en:(03)00:10:07:189
00:14:24.822 : en:(04)00:14:24:822
00:20:57.589 : en:(05)00:20:57:589
00:26:05.105 : en:(06)00:26:05:105
00:31:56.873 : en:(07)00:31:56:873
00:38:17.336 : en:(08)00:38:17:336
00:47:00.609 : en:(09)00:47:00:609
00:52:42.659 : en:(10)00:52:42:659
00:59:16.844 : en:(11)00:59:16:844
01:06:59.015 : en:(12)01:06:59:015
01:13:13.430 : en:(13)01:13:13:430
01:19:33.477 : en:(14)01:19:33:477
01:25:55.942 : en:(15)01:25:55:942
01:31:46.667 : en:(16)01:31:46:667
01:35:17.586 : en:(17)01:35:17:586
01:46:01.563 : en:(18)01:46:01:563
На встроенных ТВ-плейерах показывать НЕ будет!!!

Скриншоты:


Рип сделан в формате 16:9 - специально для корректного воспроизведения 3Dсофт-плеерами сразу в полный экран.
Воспроизведение проверенно: Arcsoft TMT5,6 и Cyberlink PowerDVD12,13
Всем приятного просмотра!
Время раздачи: 24/7 - круглосуточно до 10 скачавших
загрузка...
Правила, инструкции, FAQ!!!
Торрент  Добавлен [28 сен 2013, 23:20] Скачать торрент
Скачать торрент
[ Размер 40.45 КБ / Просмотров 12 ]

Статус  
 
Размер  15.82 ГБ
Приватный: Нет (DHT включён)
.torrent скачан  1
Как залить торрент? | Как скачать Torrent? | Как смотреть и слушать онлайн?  


     Отправить личное сообщение
   
Страница 1 из 1
Показать сообщения за:  Поле сортировки  
Начать новую тему Ответить на тему

   Похожие торренты   Автор   Ответы   Просмотры   Последнее сообщение 
В этой теме нет новых непрочитанных сообщений. Скачать торрент Битва Титанов, Гнев Титанов / Clash of the Titans, Wrath of the Titans (2010-2012) HDRip-AVC

в форуме Дилогии, Размер: 2.82 ГБ, Здоровье: 100%

Anonymous

0
189|14

399
663

06 фев 2014, 14:03

Anonymous Перейти к последнему сообщению

В этой теме нет новых непрочитанных сообщений. Скачать торрент Проверен Мегамозг в 3Д / Megamind 3D (Том МакГрат / Tom McGrath) [2010, Мультфильм, Фантастика, Боевик, Комедия, Семейный, BDrip, 1080p] OverUnder / Вертикальная стереопара

в форуме 3D Мультфильмы, Размер: 9.13 ГБ, Здоровье: 0%

Anonymous

0
0|0

8
0

07 сен 2016, 17:36

Anonymous Перейти к последнему сообщению

В этой теме нет новых непрочитанных сообщений. Скачать торрент Проверен Гнев Титанов / Wrath of the Titans (Джонатан Либесман / Jonathan Liebesman) [2012, США, фэнтези, боевик, приключения, BDRip] Dub (Лицензия)

в форуме Фантастика, Фэнтези, Размер: 1.46 ГБ, Здоровье: 100%

Anonymous

0
36|11

362
1

05 июл 2015, 10:49

Anonymous Перейти к последнему сообщению

В этой теме нет новых непрочитанных сообщений. Скачать торрент Проверен Шевели ластами! в 3Д / Sammys avonturen: De geheime doorgang 3D (Бен Стассен / Ben Stassen) [2010 г., Приключения, мультфильм, BDrip, 1080p] OverUnder / Вертикальная стереопара

в форуме 3D Мультфильмы, Размер: 7.58 ГБ, Здоровье: 0%

Anonymous

0
0|0

6
0

07 сен 2016, 17:30

Anonymous Перейти к последнему сообщению

В этой теме нет новых непрочитанных сообщений. Скачать торрент Проверен Гадкий Я 3Д / Despicable Me 3D (Пьер Соффин, Крис Рено / Pierre Coffin, Chris Renaud) [2010 г., комедия, семейный, мультфильм, BDrip 1080p] OverUnder / Вертикальная стереопара

в форуме 3D Мультфильмы, Размер: 8.76 ГБ, Здоровье: 100%

Anonymous

0
7|2

10
0

07 сен 2016, 18:07

Anonymous Перейти к последнему сообщению



Сейчас этот форум просматривают: нет зарегистрированных пользователей и гости: 2


Вы не можете начинать темы
Вы не можете отвечать на сообщения
Вы не можете редактировать свои сообщения
Вы не можете удалять свои сообщения
Вы не можете добавлять вложения

Перейти:  

!ВНИМАНИЕ!
 Ресурс не предоставляет электронные версии произведений, а занимается лишь коллекционированием и каталогизацией ссылок, присылаемых и публикуемых на форуме нашими читателями. Если вы являетесь правообладателем какого-либо представленного материала и не желаете чтобы ссылка на него находилась в нашем каталоге, свяжитесь с нами и мы незамедлительно удалим её. Файлы для обмена на трекере предоставлены пользователями сайта, и администрация не несёт ответственности за их содержание. Просьба не заливать файлы, защищенные авторскими правами, а также файлы нелегального содержания!