На всех торрентах на трекере установлена скидка на скачивание в размере 100 процентов(а).
 Возможность скачивания торрента НЕ зависит от ограничений при низком ратио, низком аплоаде, требуемом ратио или требуемом аплоаде.


Начать новую тему Ответить на тему
Статистика раздачи
Размер: 22.98 ГБ | Добавлен: 28 сен 2013, 23:20 | Скачали: 0
Сидеров: 4  [0 байт/сек]    Личеров: 1  [0 байт/сек]
Пред. тема | След. тема 

Автор
Сообщение

СообщениеДобавлено: 28 сен 2013, 23:20 

Джон Картер / John Carter (2012) BDRip
«В этом мире у каждого есть второй шанс»

Год выпуска: 2012
Жанр: Фантастика, Фэнтези, Боевик, Приключения

Описание фильма:
Ветеран Гражданской войны в США Джон Картер против своей воли оказывается на Марсе, где попадает в плен к воинственным четырехметровым туземцам. Картеру предстоит не только спастись самому, но и спасти принцессу Дею Торис из Гелиума.
Режиссер: Эндрю Стэнтон
Актеры: Тейлор Китч, Линн Коллинс, Марк Стронг, Доминик Уэст, Джеймс Пьюрфой, Брайан Крэнстон, Дэрил Сабара, Аманда Клэйтон, Киаран Хайндс, Николас Вудесон
Роли дублировали: Олег Фёдоров, Марианна Коробейникова, Александр Аравушкин, Александр Ноткин, Сергей Дьячков
Продолжительность: 02:12:01
Качество видео: BDRip
Перевод: Дублированный (Русский, Украинский), Одноголосый закадровый
Субтитры: Вшитые отключаемые
Язык субтитров: Русский, украинский (на речь марсиан)


Рейтинг PG-13 - Детям до 13 лет просмотр не желателен
Возраст 12+ - зрителям, достигшим 12 лет

Дата мировой премьеры: 22 февраля 2012
Дата российской премьеры: 8 марта 2012, «WDSSPR»
Дата выхода DVD релиза: 5 июня 2012, «Уолт Дисней Компани СНГ»
Дата выхода BLU-RAY релиза: 5 июня 2012, «Уолт Дисней Компани СНГ»
Видеокодек: MPEG-4 AVC/H.264
Битрейт видео: ~20,1 Мбит/сек
Размер кадра: 1920x1600
Аудио 1: DTS 5.1, 1509 kbps, [Русский - дублированный]
Аудио 2: DTS 5.1, 1509 kbps, [Русский - одноголосый закадровый «А. Гаврилов»]
Аудио 3: AC3 5.1, 640 kbps, [Украинский - дублированный]
Аудио 4: AC3 5.1, 640 kbps, [Английский]
Общее
Уникальный идентификатор : 211939162475903909449549608512312810434 (0x9F71FF790019DA7284BD7407A1739BC2)
Полное имя : G:\Full 3Drip\JOHN_CARTER_3D.mkv
Формат : Matroska
Версия формата : Version 2
Размер файла : 23,0 Гбайт
Продолжительность : 2 ч. 12 м.
Общий поток : 24,9 Мбит/сек
Название фильма : JOHN_CARTER_3D_FULL_O/U
Дата кодирования : UTC 2013-08-11 05:51:00
Программа кодирования : mkvmerge v5.7.0 ('The Whirlwind') built on Aug 7 2012 14:11:40
Библиотека кодирования : libebml v1.2.3 + libmatroska v1.3.0

Видео
Идентификатор : 1
Формат : AVC
Формат/Информация : Advanced Video Codec
Профиль формата :
Параметр CABAC формата : Да
Параметр ReFrames формата : 6 кадров
Идентификатор кодека : V_MPEG4/ISO/AVC
Продолжительность : 2 ч. 12 м.
Битрейт : 20,1 Мбит/сек
Ширина : 1920 пикселей
Высота : 1600 пикселей
Соотношение сторон : 1,200
Соотношение сторон в оригинале : 16:9
Режим частоты кадров : Постоянный
Частота кадров : 23,976 кадра/сек
Цветовое пространство : YUV
Субдискретизация насыщенности : 4:2:0
Битовая глубина : 8 бит
Тип развёртки : Прогрессивная
Бит/(Пиксели*Кадры) : 0.273
Размер потока : 18,6 Гбайт (81%)
Заголовок : rip by I/N
Библиотека кодирования : x264 core 128 r2216M 198a7ea
Настройки программы : cabac=1 / ref=6 / deblock=1:-1:-1 / analyse=0x3:0x133 / me=esa / subme=10 / psy=1 / psy_rd=1.00:0.15 / mixed_ref=1 / me_range=32 / chroma_me=1 / trellis=2 / 8x8dct=1 / cqm=0 / deadzone=21,11 / fast_pskip=1 / chroma_qp_offset=-3 / threads=4 / lookahead_threads=1 / sliced_threads=0 / nr=0 / decimate=1 / interlaced=0 / bluray_compat=0 / constrained_intra=0 / bframes=8 / b_pyramid=2 / b_adapt=2 / b_bias=0 / direct=3 / weightb=1 / open_gop=0 / weightp=2 / keyint=230 / keyint_min=23 / scenecut=40 / intra_refresh=0 / rc_lookahead=60 / rc=crf / mbtree=1 / crf=18.0 / qcomp=0.60 / qpmin=0 / qpmax=69 / qpstep=8 / ip_ratio=1.40 / aq=1:1.00
Default : Да
Forced : Нет

Аудио #1
Идентификатор : 2
Формат : DTS
Формат/Информация : Digital Theater Systems
Режим : 16
Параметр Endianness формата : Big
Идентификатор кодека : A_DTS
Продолжительность : 2 ч. 12 м.
Вид битрейта : Постоянный
Битрейт : 1509 Кбит/сек
Каналы : 6 каналов
Расположение каналов : Front: L C R, Side: L R, LFE
Частота : 48,0 КГц
Битовая глубина : 24 бит
Метод сжатия : С потерями
Размер потока : 1,39 Гбайт (6%)
Заголовок : Дубляж
Язык : Russian
Default : Да
Forced : Нет

Аудио #2
Идентификатор : 3
Формат : DTS
Формат/Информация : Digital Theater Systems
Режим : 16
Параметр Endianness формата : Big
Идентификатор кодека : A_DTS
Продолжительность : 2 ч. 12 м.
Вид битрейта : Постоянный
Битрейт : 1509 Кбит/сек
Каналы : 6 каналов
Расположение каналов : Front: L C R, Side: L R, LFE
Частота : 48,0 КГц
Битовая глубина : 24 бит
Метод сжатия : С потерями
Размер потока : 1,39 Гбайт (6%)
Заголовок : VO - А. Гаврилов
Язык : Russian
Default : Нет
Forced : Нет

Аудио #3
Идентификатор : 4
Формат : AC-3
Формат/Информация : Audio Coding 3
Расширение режима : CM (complete main)
Параметр Endianness формата : Big
Идентификатор кодека : A_AC3
Продолжительность : 2 ч. 12 м.
Вид битрейта : Постоянный
Битрейт : 640 Кбит/сек
Каналы : 6 каналов
Расположение каналов : Front: L C R, Side: L R, LFE
Частота : 48,0 КГц
Битовая глубина : 16 бит
Метод сжатия : С потерями
Размер потока : 604 Мбайт (3%)
Заголовок : Дубляж
Язык : Ukrainian
Default : Нет
Forced : Нет

Аудио #4
Идентификатор : 5
Формат : AC-3
Формат/Информация : Audio Coding 3
Расширение режима : CM (complete main)
Параметр Endianness формата : Big
Идентификатор кодека : A_AC3
Продолжительность : 2 ч. 12 м.
Вид битрейта : Постоянный
Битрейт : 640 Кбит/сек
Каналы : 6 каналов
Расположение каналов : Front: L C R, Side: L R, LFE
Частота : 48,0 КГц
Битовая глубина : 16 бит
Метод сжатия : С потерями
Размер потока : 604 Мбайт (3%)
Заголовок : Original
Язык : English
Default : Нет
Forced : Нет

Текст #1
Идентификатор : 6
Формат : UTF-8
Идентификатор кодека : S_TEXT/UTF8
Идентификатор кодека/Информация : UTF-8 Plain Text
Заголовок : Forced
Язык : Russian
Default : Да
Forced : Нет

Текст #2
Идентификатор : 7
Формат : UTF-8
Идентификатор кодека : S_TEXT/UTF8
Идентификатор кодека/Информация : UTF-8 Plain Text
Заголовок : Forced
Язык : Ukrainian
Default : Нет
Forced : Нет

Меню
00:00:00.000 : en:(01)00:00:00:000
00:10:23.539 : en:(02)00:10:23:539
00:27:06.833 : en:(03)00:27:06:833
00:47:46.446 : en:(04)00:47:46:446
00:58:55.198 : en:(05)00:58:55:198
01:07:46.479 : en:(06)01:07:46:479
01:37:07.905 : en:(07)01:37:07:905
02:03:01.916 : en:(08)02:03:01:916
На встроенных ТВ-плейерах показывать НЕ будет!!!


Скриншоты:


Рип сделан в формате 16:9 - специально для корректного воспроизведения 3Dсофт-плеерами сразу в полный экран.
Воспроизведение проверенно: Arcsoft TMT5,6 и Cyberlink PowerDVD12,13
Всем приятного просмотра!
Время раздачи: 24/7 - круглосуточно до 10 скачавших
загрузка...
Правила, инструкции, FAQ!!!
Торрент  Добавлен [28 сен 2013, 23:20] Скачать торрент
Скачать торрент
[ Размер 58.32 КБ / Просмотров 21 ]

Статус  
 
Размер  22.98 ГБ
Приватный: Нет (DHT включён)
.torrent скачан  0
Как залить торрент? | Как скачать Torrent? | Как смотреть и слушать онлайн?  


     Отправить личное сообщение
   
Страница 1 из 1
Показать сообщения за:  Поле сортировки  
Начать новую тему Ответить на тему

   Похожие торренты   Автор   Ответы   Просмотры   Последнее сообщение 
В этой теме нет новых непрочитанных сообщений. Скачать торрент Проверен [MP4 640x272] Джон Картер / John Carter (2012) HDRip

в форуме Видео для смартфонов и КПК, Размер: 1.05 ГБ, Здоровье: 50%

Anonymous

0
1|2

102
0

25 окт 2014, 23:30

Anonymous Перейти к последнему сообщению

В этой теме нет новых непрочитанных сообщений. Скачать торрент Проверен Диномама в 3Д / Dino Time 3D (Юн-сок Чхве, Джон Кафка / Yoon-suk Choi, John Kafka) [2012, Мультфильм, Комедия, Приключения, Семейный, BDrip, 1080p] OverUnder / Вертикальная стереопара

в форуме 3D Мультфильмы, Размер: 10.11 ГБ, Здоровье: 0%

Anonymous

0
0|0

6
0

07 сен 2016, 17:49

Anonymous Перейти к последнему сообщению

В этой теме нет новых непрочитанных сообщений. Скачать торрент Проверен История игрушек в 3Д / Toy Story 3D (Джон Лассетер / John Lasseter) [1995, Мультфильм, Фэнтези, Приключения, Семейный, BDrip, 1080p] OverUnder / Вертикальная стереопара

в форуме HD-Video в 3D, Размер: 8.2 ГБ, Здоровье: 100%

Anonymous

0
9|3

77
0

02 ноя 2014, 09:51

Anonymous Перейти к последнему сообщению

В этой теме нет новых непрочитанных сообщений. Скачать торрент Проверен Pycaлoчкa в 3Д / Thе Littlе Меrmаid 3D (Рон Клементс, Джон Маскер / Ron Clements, John Musker) [1989, Мультфильм, Мюзикл, Фэнтези, Мелодрама, Семейный, BDrip, 1080p] OverUnder / Вертикальная стереопара

в форуме 3D Мультфильмы, Размер: 17.91 ГБ, Здоровье: 0%

Anonymous

0
0|0

4
0

07 сен 2016, 17:34

Anonymous Перейти к последнему сообщению

В этой теме нет новых непрочитанных сообщений. Скачать торрент Проверен Кунг-фу Панда в 3Д / Kung Fu Panda 3D (Марк Осборн, Джон Стивенсон / Mark Osborne, John Stevenson) [2008, Мультфильм, Боевик, Комедия, Приключения, Семейный, BDrip, 1080p] OverUnder / Вертикальная стереопара

в форуме HD-Video в 3D, Размер: 7.73 ГБ, Здоровье: 100%

Anonymous

0
18|6

121
1

02 ноя 2014, 09:56

Anonymous Перейти к последнему сообщению



Сейчас этот форум просматривают: нет зарегистрированных пользователей и гости: 1


Вы не можете начинать темы
Вы не можете отвечать на сообщения
Вы не можете редактировать свои сообщения
Вы не можете удалять свои сообщения
Вы не можете добавлять вложения

Перейти:  

!ВНИМАНИЕ!
 Ресурс не предоставляет электронные версии произведений, а занимается лишь коллекционированием и каталогизацией ссылок, присылаемых и публикуемых на форуме нашими читателями. Если вы являетесь правообладателем какого-либо представленного материала и не желаете чтобы ссылка на него находилась в нашем каталоге, свяжитесь с нами и мы незамедлительно удалим её. Файлы для обмена на трекере предоставлены пользователями сайта, и администрация не несёт ответственности за их содержание. Просьба не заливать файлы, защищенные авторскими правами, а также файлы нелегального содержания!