На всех торрентах на трекере установлена скидка на скачивание в размере 100 процентов(а).
 Возможность скачивания торрента НЕ зависит от ограничений при низком ратио, низком аплоаде, требуемом ратио или требуемом аплоаде.


Начать новую тему Ответить на тему
Статистика раздачи
Размер: 19.24 ГБ | Добавлен: 28 сен 2013, 23:20 | Скачали: 0
Сидеров: 15  [0 байт/сек]    Личеров: 1  [0 байт/сек]
Пред. тема | След. тема 

Автор
Сообщение

СообщениеДобавлено: 28 сен 2013, 23:20 

Пираты Карибского моря: На странных берегах / Pirates of the Caribbean: On Stranger Tides (2011) BDRip

«Live Forever or Die Trying...»

Русское название: Пираты Карибского моря: На странных берегах
Оригинальное название: Pirates of the Caribbean: On Stranger Tides
Год выпуска: 2011
Жанр: Фэнтези, Боевик, Комедия, Приключения

Описание фильма:
В новой истории о поисках истины, предательстве, вечной молодости и смертельной опасности капитану Джеку Воробью предстоит столкнуться с женщиной из своего прошлого Анжеликой. До самого конца не будет понятно, связывает ли их настоящая любовь, или же Анжелика искусно притворяется, чтобы вместе с Джеком добраться до таинственного источника вечной молодости.
Она силой принуждает капитана Джека Воробья взойти на корабль «Месть Королевы Анны», которым управляет коварный злодей Черная Борода. Наш герой оказывается в ситуации, когда он не знает, чего ему бояться больше — ужасного злодея или же свою давнюю подругу.
Режиссер: Роб Маршалл
Актеры: Джонни Депп, Пенелопа Крус, Джеффри Раш, Иэн МакШейн, Кевин МакНэлли, Стивен Грэм, Сэм Клафлин, Астрид Берже-Фрисби, Джемма Уорд , Кит Ричардс
Роли дублировали: Александр Баргман, Мария Цветкова-Овсянникова, Виктор Костецкий, Юрий Лазарев, Вадим Яковлев
Продолжительность: 02:16:23
Перевод: Дублированный (Русский,Украинский)

Дата мировой премьеры: 7 мая 2011
Дата российской премьеры: 18 мая 2011, «WDSSPR»
Дата выхода DVD релиза: 6 сентября 2011, «Уолт Дисней Компани СНГ»
Дата выхода BLU-RAY релиза: 6 сентября 2011, «Уолт Дисней Компани СНГ»
Видеокодек: MPEG-4 AVC/H.264
Битрейт видео: ~17,9 Мбит/сек
Размер кадра: 1920x1632
Качество видео: BDRip
Аудио №1: AC3 5.1 640 kbps / Русский/
Аудио №2: AC3 5.1 640 kbps / Украинский/
Аудио №3: AC3 5.1 640 kbps /Английский/
Общее
Уникальный идентификатор : 247799090419912616270799593520817401139 (0xBA6C5E6C816A68E3A4ECC2EA217E6D33)
Полное имя : H:\Full 3Drip\PIRATES_CARRIBEAN4_3D.mkv
Формат : Matroska
Версия формата : Version 2
Размер файла : 19,2 Гбайт
Продолжительность : 2 ч. 16 м.
Общий поток : 20,2 Мбит/сек
Название фильма : PIRATES_CARRIBEAN4_3D_FULL_O/U
Дата кодирования : UTC 2013-04-25 17:35:52
Программа кодирования : mkvmerge v5.7.0 ('The Whirlwind') built on Aug 7 2012 14:11:40
Библиотека кодирования : libebml v1.2.3 + libmatroska v1.3.0

Видео
Идентификатор : 1
Формат : AVC
Формат/Информация : Advanced Video Codec
Профиль формата :
Параметр CABAC формата : Да
Параметр ReFrames формата : 4 кадра
Идентификатор кодека : V_MPEG4/ISO/AVC
Продолжительность : 2 ч. 16 м.
Битрейт : 17,9 Мбит/сек
Ширина : 1920 пикселей
Высота : 1632 пикселя
Соотношение сторон : 1,176
Соотношение сторон в оригинале : 16:9
Режим частоты кадров : Постоянный
Частота кадров : 23,976 кадра/сек
Цветовое пространство : YUV
Субдискретизация насыщенности : 4:2:0
Битовая глубина : 8 бит
Тип развёртки : Прогрессивная
Бит/(Пиксели*Кадры) : 0.238
Размер потока : 17,0 Гбайт (89%)
Заголовок : rip by I/N
Библиотека кодирования : x264 core 128 r2216M 198a7ea
Настройки программы : cabac=1 / ref=4 / deblock=1:-2:-2 / analyse=0x3:0x133 / me=umh / subme=9 / psy=1 / psy_rd=1.00:0.00 / mixed_ref=1 / me_range=32 / chroma_me=1 / trellis=2 / 8x8dct=1 / cqm=1 / deadzone=21,11 / fast_pskip=1 / chroma_qp_offset=-2 / threads=4 / lookahead_threads=1 / sliced_threads=0 / nr=0 / decimate=1 / interlaced=0 / bluray_compat=0 / constrained_intra=0 / bframes=6 / b_pyramid=2 / b_adapt=2 / b_bias=0 / direct=1 / weightb=1 / open_gop=0 / weightp=2 / keyint=230 / keyint_min=23 / scenecut=40 / intra_refresh=0 / rc_lookahead=60 / rc=crf / mbtree=1 / crf=18.0 / qcomp=0.60 / qpmin=3 / qpmax=69 / qpstep=8 / vbv_maxrate=40000 / vbv_bufsize=30000 / crf_max=30.0 / nal_hrd=none / ip_ratio=1.40 / aq=1:1.00
Default : Да
Forced : Нет

Аудио #1
Идентификатор : 2
Формат : AC-3
Формат/Информация : Audio Coding 3
Расширение режима : CM (complete main)
Параметр Endianness формата : Big
Идентификатор кодека : A_AC3
Продолжительность : 2 ч. 16 м.
Вид битрейта : Постоянный
Битрейт : 640 Кбит/сек
Каналы : 6 каналов
Расположение каналов : Front: L C R, Side: L R, LFE
Частота : 48,0 КГц
Битовая глубина : 16 бит
Метод сжатия : С потерями
Размер потока : 624 Мбайт (3%)
Заголовок : Дубляж
Язык : Russian
Default : Да
Forced : Да

Аудио #2
Идентификатор : 3
Формат : AC-3
Формат/Информация : Audio Coding 3
Расширение режима : CM (complete main)
Параметр Endianness формата : Big
Идентификатор кодека : A_AC3
Продолжительность : 2 ч. 16 м.
Вид битрейта : Постоянный
Битрейт : 640 Кбит/сек
Каналы : 6 каналов
Расположение каналов : Front: L C R, Side: L R, LFE
Частота : 48,0 КГц
Битовая глубина : 16 бит
Метод сжатия : С потерями
Размер потока : 624 Мбайт (3%)
Заголовок : Дубляж
Язык : Ukrainian
Default : Нет
Forced : Нет

Аудио #3
Идентификатор : 4
Формат : AC-3
Формат/Информация : Audio Coding 3
Расширение режима : CM (complete main)
Параметр Endianness формата : Big
Идентификатор кодека : A_AC3
Продолжительность : 2 ч. 16 м.
Вид битрейта : Постоянный
Битрейт : 640 Кбит/сек
Каналы : 6 каналов
Расположение каналов : Front: L C R, Side: L R, LFE
Частота : 48,0 КГц
Битовая глубина : 16 бит
Метод сжатия : С потерями
Размер потока : 624 Мбайт (3%)
Заголовок : Original
Язык : English
Default : Нет
Forced : Нет

Меню
00:00:00.000 : en:00:00:00.000
00:03:34.172 : en:00:03:34.172
00:08:46.776 : en:00:08:46.776
00:15:56.080 : en:00:15:56.080
00:18:34.155 : en:00:18:34.155
00:21:15.316 : en:00:21:15.316
00:30:05.512 : en:00:30:05.512
00:36:56.756 : en:00:36:56.756
00:42:05.356 : en:00:42:05.356
00:48:20.022 : en:00:48:20.022
00:53:26.078 : en:00:53:26.078
00:55:42.965 : en:00:55:42.965
00:57:52.844 : en:00:57:52.844
01:00:47.477 : en:01:00:47.477
01:08:22.223 : en:01:08:22.223
01:11:41.339 : en:01:11:41.339
01:13:03.170 : en:01:13:03.170
01:14:16.744 : en:01:14:16.744
01:23:19.995 : en:01:23:19.995
01:26:49.621 : en:01:26:49.621
01:30:16.494 : en:01:30:16.494
01:35:43.738 : en:01:35:43.738
01:40:57.927 : en:01:40:57.927
01:43:07.556 : en:01:43:07.556
01:44:51.660 : en:01:44:51.660
01:48:53.610 : en:01:48:53.610
01:57:41.471 : en:01:57:41.471
02:02:21.376 : en:02:02:21.376
02:05:51.461 : en:02:05:51.461
02:07:26.806 : en:02:07:26.806
На встроенных ТВ-плейерах показывать НЕ будет!!!

Скриншоты:


Данный рип сделан в формате 16:9 - специально для корректного воспроизведения 3Dсофт-плеерами сразу в полный экран.
Воспроизведение проверенно: Arcsoft TMT6 и Cyberlink PowerDVD11
Всем приятного просмотра!
Время раздачи: 24/7 - круглосуточно до 10 скачавших
загрузка...
Правила, инструкции, FAQ!!!
Торрент  Добавлен [28 сен 2013, 23:20] Скачать торрент
Скачать торрент
[ Размер 49.14 КБ / Просмотров 13 ]

Статус  
 
Размер  19.24 ГБ
Приватный: Нет (DHT включён)
.torrent скачан  0
Как залить торрент? | Как скачать Torrent? | Как смотреть и слушать онлайн?  


     Отправить личное сообщение
   
Страница 1 из 1
Показать сообщения за:  Поле сортировки  
Начать новую тему Ответить на тему

   Похожие торренты   Автор   Ответы   Просмотры   Последнее сообщение 
В этой теме нет новых непрочитанных сообщений. Скачать торрент Проверен [MP4 960x540] Пираты Карибского моря: На странных берегах 3D / Pirates of the Caribbean: On Stranger Tides 3D (2011) BDRip

в форуме Видео для смартфонов и КПК, Размер: 2.49 ГБ, Здоровье: 100%

Anonymous

0
1|1

92
0

25 окт 2014, 23:22

Anonymous Перейти к последнему сообщению

В этой теме нет новых непрочитанных сообщений. Скачать торрент Проверен [VIDEO] Пираты Карибского моря: На странных берегах / Pirates of the Caribbean: On Stranger Tides (Роб Маршалл / Rob Marshall) [2011 г., США, фэнтези, боевик, комедия, приключения, HDRip][MP4, 800x]

в форуме Видео для смартфонов и КПК, Размер: 1.46 ГБ, Здоровье: 100%

Anonymous

0
11|4

77
0

02 авг 2014, 17:04

Anonymous Перейти к последнему сообщению

В этой теме нет новых непрочитанных сообщений. Скачать торрент Проверен Коллекция журналов | Пираты Карибского Моря на странных берегах. Собери «Чёрную Жемчужину» №1-100 (2012) [PDF] Обновлено 26.01.14.

в форуме На досуге, Размер: 1.37 ГБ, Здоровье: 100%

Гость

0
3|1

135
8

07 янв 2015, 21:05

Гость Перейти к последнему сообщению

В этой теме нет новых непрочитанных сообщений. Скачать торрент Пираты Карибского моря 3: На краю Света / Pirates of the Caribbean 3: At World's End (Гор Вербински / Gore Verbinski) [2007 г., фэнтези, приключения, семейный, BDRip-AVC]

в форуме 720p | 1080p, Размер: 3 ГБ, Здоровье: 0%

Anonymous

0
0|0

63
0

19 фев 2014, 11:42

Anonymous Перейти к последнему сообщению

В этой теме нет новых непрочитанных сообщений. Скачать торрент Проверен [iPad] Пираты Карибского моря: На краю Света / Pirates of the Caribbean: At World's End (Гор Вербински / Gore Verbinski) [2007 г., боевик, фэнтези, приключения, BDRip 720p]

в форуме Фильмы для iPod, iPhone, iPad, Размер: 3.69 ГБ, Здоровье: 100%

Гость

0
40|13

78
2

13 май 2015, 23:56

Гость Перейти к последнему сообщению



Сейчас этот форум просматривают: нет зарегистрированных пользователей и гости: 1


Вы не можете начинать темы
Вы не можете отвечать на сообщения
Вы не можете редактировать свои сообщения
Вы не можете удалять свои сообщения
Вы не можете добавлять вложения

Перейти:  

!ВНИМАНИЕ!
 Ресурс не предоставляет электронные версии произведений, а занимается лишь коллекционированием и каталогизацией ссылок, присылаемых и публикуемых на форуме нашими читателями. Если вы являетесь правообладателем какого-либо представленного материала и не желаете чтобы ссылка на него находилась в нашем каталоге, свяжитесь с нами и мы незамедлительно удалим её. Файлы для обмена на трекере предоставлены пользователями сайта, и администрация не несёт ответственности за их содержание. Просьба не заливать файлы, защищенные авторскими правами, а также файлы нелегального содержания!