На всех торрентах на трекере установлена скидка на скачивание в размере 100 процентов(а).
 Возможность скачивания торрента НЕ зависит от ограничений при низком ратио, низком аплоаде, требуемом ратио или требуемом аплоаде.


Начать новую тему Ответить на тему
Статистика раздачи
Размер: 15.58 ГБ | Добавлен: 28 сен 2013, 23:19 | Скачали: 0
Сидеров: 4  [0 байт/сек]    Личеров: 1  [0 байт/сек]
Пред. тема | След. тема 

Автор
Сообщение

СообщениеДобавлено: 28 сен 2013, 23:19 

Техасская резня бензопилой 3D / Texas Chainsaw 3D (2013) BDRip

Русское название: Техасская резня бензопилой 3D
Оригинальное название: Texas Chainsaw 3D
Год выпуска: 2013
Жанр: Ужасы, Триллер, ...

Описание фильма:
Местный шериф согласился организовать для Джеба Сойера, который и скрывался под Кожаным лицом, честный судебный процесс и предоставить ему адвоката. Однако его намерениям мешает мэр, который ведет за собой толпу людей, жаждущих линчевать кровавого маньяка. Когда ситуация начинает выходить из-под контроля, а горожане принимаются ладить петли для убийцы, кто-то бросает в дом Сойера бутылку с зажигательной смесью. Дом сгорает, а вместе с ним в огне гибнут и все, кто в нем находился, включая самого Джеба и его отца. Разумеется, спустя определенное время убийства с помощью бензопилы начинаются снова. Первое предположение шерифа — Джеб Сойер выжил и решил отомстить. Но он ли это на самом деле? И если нет, то кто?
Режиссер: Джон Льюсенхоп
Актеры: Александра Даддарио, Дэн Игер, Трей Сонгз, Таня Рэймонд, Том Бэрри, Пол Рэй, Билл Моусли, Скотт Иствуд, Шон Сайпос, Керам Малики-Санчес
Роли дублировали: Наталья Фищук, Прохор Чеховской, Вероника Саркисова, Александр Хорлин, Константин Карасик
Продолжительность: 01:31:57
Перевод: Дублированный [Line]


Рейтинг PG - лицам до 17 лет обязательно присутствие взрослого
Возраст 18+ - зрителям, достигшим 18 лет
Дата мировой премьеры: 3 января 2013
Дата российской премьеры: 7 февраля 2013, «Наше Кино»

Видеокодек: MPEG-4 AVC/H.264
Битрейт видео: ~22,7 Мбит/сек
Размер кадра: 1920x1600
Качество видео: BDRip
Аудио №1: AC3 5.1 448 kbps - Русский
Аудио №2: AC3 5.1 640 kbps - Английский
Общее
Уникальный идентификатор : 229997763869914651529743932907959270445 (0xAD07F543489E9E50B0D2520AEC26BC2D)
Полное имя : G:\Full 3Drip\TEXAS_CHAINSAW_3D.mkv
Формат : Matroska
Версия формата : Version 2
Размер файла : 15,6 Гбайт
Продолжительность : 1 ч. 31 м.
Общий поток : 24,2 Мбит/сек
Название фильма : TEXAS_CHAINSAW_3D_FULL_O/U
Дата кодирования : UTC 2013-05-17 15:21:33
Программа кодирования : mkvmerge v5.7.0 ('The Whirlwind') built on Aug 7 2012 14:11:40
Библиотека кодирования : libebml v1.2.3 + libmatroska v1.3.0

Видео
Идентификатор : 1
Формат : AVC
Формат/Информация : Advanced Video Codec
Профиль формата :
Параметр CABAC формата : Да
Параметр ReFrames формата : 6 кадров
Идентификатор кодека : V_MPEG4/ISO/AVC
Продолжительность : 1 ч. 31 м.
Битрейт : 22,7 Мбит/сек
Ширина : 1920 пикселей
Высота : 1600 пикселей
Соотношение сторон : 1,200
Соотношение сторон в оригинале : 16:9
Режим частоты кадров : Постоянный
Частота кадров : 23,976 кадра/сек
Цветовое пространство : YUV
Субдискретизация насыщенности : 4:2:0
Битовая глубина : 8 бит
Тип развёртки : Прогрессивная
Бит/(Пиксели*Кадры) : 0.308
Размер потока : 14,6 Гбайт (94%)
Заголовок : rip by I/N
Библиотека кодирования : x264 core 128 r2216M 198a7ea
Настройки программы : cabac=1 / ref=6 / deblock=1:-2:-2 / analyse=0x3:0x133 / me=umh / subme=10 / psy=1 / psy_rd=0.40:0.15 / mixed_ref=1 / me_range=24 / chroma_me=1 / trellis=2 / 8x8dct=1 / cqm=0 / deadzone=6,6 / fast_pskip=1 / chroma_qp_offset=-3 / threads=4 / lookahead_threads=1 / sliced_threads=0 / nr=0 / decimate=0 / interlaced=0 / bluray_compat=0 / constrained_intra=0 / bframes=6 / b_pyramid=2 / b_adapt=2 / b_bias=0 / direct=1 / weightb=1 / open_gop=0 / weightp=2 / keyint=230 / keyint_min=23 / scenecut=40 / intra_refresh=0 / rc_lookahead=60 / rc=crf / mbtree=1 / crf=18.0 / qcomp=0.80 / qpmin=10 / qpmax=69 / qpstep=4 / vbv_maxrate=40000 / vbv_bufsize=30000 / crf_max=30.0 / nal_hrd=none / ip_ratio=1.10 / aq=1:0.70
Default : Да
Forced : Да

Аудио #1
Идентификатор : 2
Формат : AC-3
Формат/Информация : Audio Coding 3
Расширение режима : CM (complete main)
Параметр Endianness формата : Big
Идентификатор кодека : A_AC3
Продолжительность : 1 ч. 31 м.
Вид битрейта : Постоянный
Битрейт : 448 Кбит/сек
Каналы : 6 каналов
Расположение каналов : Front: L C R, Side: L R, LFE
Частота : 48,0 КГц
Битовая глубина : 16 бит
Метод сжатия : С потерями
Размер потока : 295 Мбайт (2%)
Заголовок : Дубляж [line]
Язык : Russian
Default : Да
Forced : Да

Аудио #2
Идентификатор : 3
Формат : AC-3
Формат/Информация : Audio Coding 3
Расширение режима : CM (complete main)
Параметр Endianness формата : Big
Идентификатор кодека : A_AC3
Продолжительность : 1 ч. 31 м.
Вид битрейта : Постоянный
Битрейт : 640 Кбит/сек
Каналы : 6 каналов
Расположение каналов : Front: L C R, Side: L R, LFE
Частота : 48,0 КГц
Битовая глубина : 16 бит
Метод сжатия : С потерями
Размер потока : 421 Мбайт (3%)
Заголовок : Original
Язык : English
Default : Нет
Forced : Нет

Меню
00:00:00.000 : en:(01)00:00:00:000
00:05:50.767 : en:(02)00:05:50:767
00:13:10.080 : en:(03)00:13:10:080
00:19:32.296 : en:(04)00:19:32:296
00:26:39.222 : en:(05)00:26:39:222
00:31:56.623 : en:(06)00:31:56:623
00:38:02.196 : en:(07)00:38:02:196
00:43:00.536 : en:(08)00:43:00:536
00:47:00.359 : en:(09)00:47:00:359
00:49:55.200 : en:(10)00:49:55:200
00:52:09.417 : en:(11)00:52:09:417
00:56:26.007 : en:(12)00:56:26:007
00:59:24.644 : en:(13)00:59:24:644
01:06:09.674 : en:(14)01:06:09:674
01:13:03.629 : en:(15)01:13:03:629
01:18:13.939 : en:(16)01:18:13:939
01:31:57.094 : en:(17)01:31:57:094
На встроенных ТВ-плейерах показывать НЕ будет!!!

Скриншоты:


Данный рип сделан в формате 16:9 - специально для корректного воспроизведения 3Dсофт-плеерами сразу в полный экран.
Воспроизведение проверенно: Arcsoft TMT6 и Cyberlink PowerDVD11
Всем приятного просмотра!
Время раздачи: 24/7 - круглосуточно до 10 скачавших
загрузка...
Правила, инструкции, FAQ!!!
Торрент  Добавлен [28 сен 2013, 23:19] Скачать торрент
Скачать торрент
[ Размер 39.9 КБ / Просмотров 6 ]

Статус  
 
Размер  15.58 ГБ
Приватный: Нет (DHT включён)
.torrent скачан  0
Как залить торрент? | Как скачать Torrent? | Как смотреть и слушать онлайн?  


     Отправить личное сообщение
   
Страница 1 из 1
Показать сообщения за:  Поле сортировки  
Начать новую тему Ответить на тему

   Похожие торренты   Автор   Ответы   Просмотры   Последнее сообщение 
В этой теме нет новых непрочитанных сообщений. Скачать торрент Помпеи / Pompeii (2014) BDRip [1080p] 3D [Вертикальная анаморфная стереопара] [Line]

в форуме HD-Video в 3D, Размер: 10.29 ГБ, Здоровье: 0%

Anonymous

0
0|0

103
4

03 май 2014, 07:57

Anonymous Перейти к последнему сообщению

В этой теме нет новых непрочитанных сообщений. Скачать торрент Четверо 2 / Si Da Ming Bu 2 / The Four 2 (2013) BDRip [1080p] 3D [Вертикальная анаморфная стереопара]

в форуме HD-Video в 3D, Размер: 16.87 ГБ, Здоровье: 100%

Anonymous

0
23|2

113
0

23 мар 2014, 00:18

Anonymous Перейти к последнему сообщению

В этой теме нет новых непрочитанных сообщений. Скачать торрент Лучшее в 3Д / Best of 3D (2012 - 2013) BDRip [1080p] 3D [Вертикальная анаморфная стереопара]

в форуме HD-Video в 3D, Размер: 35.86 ГБ, Здоровье: 100%

Anonymous

0
58|4

177
0

09 янв 2014, 22:26

Anonymous Перейти к последнему сообщению

В этой теме нет новых непрочитанных сообщений. Скачать торрент Проверен Тор 2: Царство тьмы / Thor: The Dark World (2013) BDRip [1080p] 3D [Вертикальная анаморфная стереопара]

в форуме HD-Video в 3D, Размер: 7.77 ГБ, Здоровье: 100%

Anonymous

0
37|1

264
1

12 июл 2015, 12:34

Anonymous Перейти к последнему сообщению

В этой теме нет новых непрочитанных сообщений. Скачать торрент Хоббит: Пустошь Смауга / The Hobbit: The Desolation of Smaug (2013) BDRip [1080p] 3D [Горизонтальная анаморфная стереопара] [Line]

в форуме HD-Video в 3D, Размер: 15.98 ГБ, Здоровье: 100%

Anonymous

0
37|2

84
1

22 мар 2014, 09:01

Anonymous Перейти к последнему сообщению



Сейчас этот форум просматривают: нет зарегистрированных пользователей и гости: 1


Вы не можете начинать темы
Вы не можете отвечать на сообщения
Вы не можете редактировать свои сообщения
Вы не можете удалять свои сообщения
Вы не можете добавлять вложения

Перейти:  

!ВНИМАНИЕ!
 Ресурс не предоставляет электронные версии произведений, а занимается лишь коллекционированием и каталогизацией ссылок, присылаемых и публикуемых на форуме нашими читателями. Если вы являетесь правообладателем какого-либо представленного материала и не желаете чтобы ссылка на него находилась в нашем каталоге, свяжитесь с нами и мы незамедлительно удалим её. Файлы для обмена на трекере предоставлены пользователями сайта, и администрация не несёт ответственности за их содержание. Просьба не заливать файлы, защищенные авторскими правами, а также файлы нелегального содержания!