На всех торрентах на трекере установлена скидка на скачивание в размере 100 процентов(а).
 Возможность скачивания торрента НЕ зависит от ограничений при низком ратио, низком аплоаде, требуемом ратио или требуемом аплоаде.


Начать новую тему Ответить на тему
Статистика раздачи
Размер: 11.47 ГБ | Добавлен: 28 сен 2013, 23:18 | Скачали: 0
Сидеров: 24  [0 байт/сек]    Личеров: 1  [0 байт/сек]
Пред. тема | След. тема 

Автор
Сообщение

СообщениеДобавлено: 28 сен 2013, 23:18 

Телепорт / Jumper (2008) BDRip
«Где угодно. Когда угодно. Мгновенно.»

Год выпуска: 2008
Жанр: Фантастика, Боевик, Триллер, Приключения

Описание фильма:
Подросток из неблагополучного района Дэвид Райс всегда считал себя обычным парнем, пока однажды он не узнал, что он может телепортироваться с места на место. Новые способности открыли перед ним весь мир. Он может побывать в Нью-Йорке и Токио, посетить античные развалины в Риме, увидеть «крышу мира» с горы Эверест, увидеть 20 рассветов и 20 закатов. И все — в один день.
Теперь ему не нужны деньги — он может взять сколько хочет. Однако в один момент он обнаруживает, что стал мишенью. На него, как и на других подобных ему, объявлена охота. На протяжении тысячи лет тайное общество стремится уничтожить их. Вскоре Дэвид узнает истинную ценность его новых способностей.
Режиссер: Даг Лайман
Актеры: Хейден Кристенсен, Джейми Белл, Рэйчел Билсон, Дайан Лэйн, Сэмюэл Л. Джексон, Майкл Рукер, Анна-София Робб, Макс Тириот, Джесси Джеймс, Том Халс
Роли дублировали: Александр Солдатов, Александр Койгеров, Ксения Кладько, Вадим Гущин, Анатолий Дубанов
Продолжительность: 01:28:20
Качество видео: BDRip
Перевод: Дублированный (Русский, Украинский) / Многоголосый закадровый (Студия «Кравец», LostFilm) / Одноглосый закадровый (А. Гаврилов, Ю. Немахов)


Рейтинг PG-13 - Детям до 13 лет просмотр не желателен
Возраст 16+ - Зрителям, достигшим 16 лет

Дата мировой премьеры: 6 февраля 2008
Дата российской премьеры: 14 февраля 2008, «Двадцатый Век Фокс СНГ»
Дата выхода DVD релиза: 18 июня 2009, «Двадцатый Век Фокс СНГ»
Дата выхода BLU-RAY релиза: 4 декабря 2008, «Двадцатый Век Фокс СНГ»
Видеокодек: MPEG-4 AVC/H.264
Битрейт видео: ~15,0 Мбит/сек
Размер кадра: 1920x1080
Аудио 1: AC3 5.1, 640 kbps, [Русский - дублированный Blu-ray EUR]
Аудио 2: AC3 5.1, 448 kbps, [Русский - многоголосый закадровый Ст. «Кравец», LostFilm]
Аудио 3: AC3 5.1, 640 kbps, [Русский - одноголосый закадровый «А. Гаврилов»]
Аудио 4: AC3 5.1, 640 kbps, [Русский - одноголосый закадровый «Ю. Немахов»]
Аудио 5: AC3 5.1, 384 kbps, [Украинский - дублированный]
Аудио 6: AC3 5.1, 448 kbps, 48 kHz [Английский - оригинал]
Общее
Уникальный идентификатор : 236702495947160351022125566543037422392 (0xB2133E138902A658AC23D5C841635B38)
Полное имя : E:\my films\Jumper_3D.mkv
Формат : Matroska
Версия формата : Version 2
Размер файла : 11,5 Гбайт
Продолжительность : 1 ч. 28 м.
Общий поток : 18,6 Мбит/сек
Название фильма : Jumper_3D_half_o/u
Дата кодирования : UTC 2013-08-07 15:12:57
Программа кодирования : mkvmerge v5.7.0 ('The Whirlwind') built on Aug 7 2012 14:11:40
Библиотека кодирования : libebml v1.2.3 + libmatroska v1.3.0

Видео
Идентификатор : 1
Формат : AVC
Формат/Информация : Advanced Video Codec
Профиль формата :
Параметр CABAC формата : Да
Параметр ReFrames формата : 4 кадра
Идентификатор кодека : V_MPEG4/ISO/AVC
Продолжительность : 1 ч. 28 м.
Битрейт : 15,0 Мбит/сек
Ширина : 1920 пикселей
Высота : 1080 пикселей
Соотношение сторон : 16:9
Режим частоты кадров : Постоянный
Частота кадров : 23,976 кадра/сек
Цветовое пространство : YUV
Субдискретизация насыщенности : 4:2:0
Битовая глубина : 8 бит
Тип развёртки : Прогрессивная
Бит/(Пиксели*Кадры) : 0.302
Размер потока : 9,27 Гбайт (81%)
Заголовок : rip by I/N
Библиотека кодирования : x264 core 128 r2216M 198a7ea
Настройки программы : cabac=1 / ref=4 / deblock=1:-3:-3 / analyse=0x3:0x133 / me=esa / subme=10 / psy=1 / psy_rd=1.00:0.20 / mixed_ref=1 / me_range=24 / chroma_me=1 / trellis=2 / 8x8dct=1 / cqm=0 / deadzone=21,11 / fast_pskip=1 / chroma_qp_offset=-3 / threads=4 / lookahead_threads=1 / sliced_threads=0 / nr=0 / decimate=1 / interlaced=0 / bluray_compat=0 / constrained_intra=0 / bframes=6 / b_pyramid=2 / b_adapt=2 / b_bias=0 / direct=3 / weightb=1 / open_gop=0 / weightp=2 / keyint=230 / keyint_min=23 / scenecut=40 / intra_refresh=0 / rc_lookahead=60 / rc=crf / mbtree=1 / crf=18.0 / qcomp=0.60 / qpmin=0 / qpmax=69 / qpstep=4 / vbv_maxrate=40000 / vbv_bufsize=30000 / crf_max=30.0 / nal_hrd=none / ip_ratio=1.40 / aq=1:0.70
Default : Да
Forced : Нет

Аудио #1
Идентификатор : 2
Формат : AC-3
Формат/Информация : Audio Coding 3
Расширение режима : CM (complete main)
Параметр Endianness формата : Big
Идентификатор кодека : A_AC3
Продолжительность : 1 ч. 28 м.
Вид битрейта : Постоянный
Битрейт : 640 Кбит/сек
Каналы : 6 каналов
Расположение каналов : Front: L C R, Side: L R, LFE
Частота : 48,0 КГц
Битовая глубина : 16 бит
Метод сжатия : С потерями
Размер потока : 404 Мбайт (3%)
Заголовок : Дубляж - [BD EUR]
Язык : Russian
Default : Да
Forced : Нет

Аудио #2
Идентификатор : 3
Формат : AC-3
Формат/Информация : Audio Coding 3
Расширение режима : CM (complete main)
Параметр Endianness формата : Big
Идентификатор кодека : A_AC3
Продолжительность : 1 ч. 28 м.
Вид битрейта : Постоянный
Битрейт : 448 Кбит/сек
Каналы : 6 каналов
Расположение каналов : Front: L C R, Side: L R, LFE
Частота : 48,0 КГц
Битовая глубина : 16 бит
Метод сжатия : С потерями
Размер потока : 283 Мбайт (2%)
Заголовок : MVO - [ Ст. «Кравец», LostFilm]
Язык : Russian
Default : Нет
Forced : Нет

Аудио #3
Идентификатор : 4
Формат : AC-3
Формат/Информация : Audio Coding 3
Расширение режима : CM (complete main)
Параметр Endianness формата : Big
Идентификатор кодека : A_AC3
Продолжительность : 1 ч. 28 м.
Вид битрейта : Постоянный
Битрейт : 640 Кбит/сек
Каналы : 6 каналов
Расположение каналов : Front: L C R, Side: L R, LFE
Частота : 48,0 КГц
Битовая глубина : 16 бит
Метод сжатия : С потерями
Размер потока : 404 Мбайт (3%)
Заголовок : VO - [А. Гаврилов]
Язык : Russian
Default : Нет
Forced : Нет

Аудио #4
Идентификатор : 5
Формат : AC-3
Формат/Информация : Audio Coding 3
Расширение режима : CM (complete main)
Параметр Endianness формата : Big
Идентификатор кодека : A_AC3
Продолжительность : 1 ч. 28 м.
Вид битрейта : Постоянный
Битрейт : 640 Кбит/сек
Каналы : 6 каналов
Расположение каналов : Front: L C R, Side: L R, LFE
Частота : 48,0 КГц
Битовая глубина : 16 бит
Метод сжатия : С потерями
Размер потока : 404 Мбайт (3%)
Заголовок : VO - [Ю. Немахов]
Язык : Russian
Default : Нет
Forced : Нет

Аудио #5
Идентификатор : 6
Формат : AC-3
Формат/Информация : Audio Coding 3
Расширение режима : CM (complete main)
Параметр Endianness формата : Big
Идентификатор кодека : A_AC3
Продолжительность : 1 ч. 28 м.
Вид битрейта : Постоянный
Битрейт : 384 Кбит/сек
Каналы : 6 каналов
Расположение каналов : Front: L C R, Side: L R, LFE
Частота : 48,0 КГц
Битовая глубина : 16 бит
Метод сжатия : С потерями
Размер потока : 243 Мбайт (2%)
Заголовок : Дубляж
Язык : Ukrainian
Default : Нет
Forced : Нет

Аудио #6
Идентификатор : 7
Формат : AC-3
Формат/Информация : Audio Coding 3
Расширение режима : CM (complete main)
Параметр Endianness формата : Big
Идентификатор кодека : A_AC3
Продолжительность : 1 ч. 28 м.
Вид битрейта : Постоянный
Битрейт : 448 Кбит/сек
Каналы : 6 каналов
Расположение каналов : Front: L C R, Side: L R, LFE
Частота : 48,0 КГц
Битовая глубина : 16 бит
Метод сжатия : С потерями
Размер потока : 283 Мбайт (2%)
Заголовок : Original
Язык : English
Default : Нет
Forced : Нет

Меню
00:00:00.000 : en:(01)00:00:00:000
00:04:21.094 : en:(02)00:04:21:094
00:07:52.555 : en:(03)00:07:52:555
00:12:35.713 : en:(04)00:12:35:713
00:15:08.699 : en:(05)00:15:08:699
00:17:46.982 : en:(06)00:17:46:982
00:22:51.787 : en:(07)00:22:51:787
00:25:51.466 : en:(08)00:25:51:466
00:28:57.235 : en:(09)00:28:57:235
00:31:46.988 : en:(10)00:31:46:988
00:32:57.058 : en:(11)00:32:57:058
00:36:18.092 : en:(12)00:36:18:092
00:39:52.640 : en:(13)00:39:52:640
00:43:21.056 : en:(14)00:43:21:056
00:48:47.299 : en:(15)00:48:47:299
00:51:01.725 : en:(16)00:51:01:725
00:54:48.285 : en:(17)00:54:48:285
00:59:15.969 : en:(18)00:59:15:969
01:02:11.728 : en:(19)01:02:11:728
01:07:32.673 : en:(20)01:07:32:673
01:12:45.402 : en:(21)01:12:45:402
01:17:04.411 : en:(22)01:17:04:411
01:20:39.584 : en:(23)01:20:39:584
01:23:49.065 : en:(24)01:23:49:065
01:28:20.503 : en:(25)01:28:20:503
Проверено на встроенном плейере ТВ Samsung-D6500


Скриншоты:




Время раздачи: 24/7 - круглосуточно до 10 скачавших
загрузка...
Правила, инструкции, FAQ!!!
Торрент  Добавлен [28 сен 2013, 23:18] Скачать торрент
Скачать торрент
[ Размер 29.56 КБ / Просмотров 8 ]

Статус  
 
Размер  11.47 ГБ
Приватный: Нет (DHT включён)
.torrent скачан  0
Как залить торрент? | Как скачать Torrent? | Как смотреть и слушать онлайн?  


     Отправить личное сообщение
   
Страница 1 из 1
Показать сообщения за:  Поле сортировки  
Начать новую тему Ответить на тему

   Похожие торренты   Автор   Ответы   Просмотры   Последнее сообщение 
В этой теме нет новых непрочитанных сообщений. Скачать торрент Проверен Телепорт / Jumper (2008) BDRip-AVC | Open Matte

в форуме Фантастика, Фэнтези, Размер: 1.46 ГБ, Здоровье: 100%

Гость

0
119|4

43
631

29 ноя 2014, 20:48

Гость Перейти к последнему сообщению

В этой теме нет новых непрочитанных сообщений. Скачать торрент Лучшее в 3Д / Best of 3D (2012 - 2013) BDRip [1080p] 3D [Вертикальная анаморфная стереопара]

в форуме HD-Video в 3D, Размер: 35.86 ГБ, Здоровье: 100%

Anonymous

0
58|4

177
0

09 янв 2014, 22:26

Anonymous Перейти к последнему сообщению

В этой теме нет новых непрочитанных сообщений. Скачать торрент Четверо 2 / Si Da Ming Bu 2 / The Four 2 (2013) BDRip [1080p] 3D [Вертикальная анаморфная стереопара]

в форуме HD-Video в 3D, Размер: 16.87 ГБ, Здоровье: 100%

Anonymous

0
23|2

111
0

23 мар 2014, 00:18

Anonymous Перейти к последнему сообщению

В этой теме нет новых непрочитанных сообщений. Скачать торрент Проверен Шаг вперёд: Всё или ничего / Step Up All In (2014) BDRip [1080p] 3D [Вертикальная анаморфная стереопара]

в форуме HD-Video в 3D, Размер: 12.2 ГБ, Здоровье: 100%

Anonymous

0
72|7

223
1

28 ноя 2014, 20:38

Anonymous Перейти к последнему сообщению

В этой теме нет новых непрочитанных сообщений. Скачать торрент Помпеи / Pompeii (2014) BDRip [1080p] 3D [Вертикальная анаморфная стереопара] [Line]

в форуме HD-Video в 3D, Размер: 10.29 ГБ, Здоровье: 0%

Anonymous

0
0|0

102
4

03 май 2014, 07:57

Anonymous Перейти к последнему сообщению



Сейчас этот форум просматривают: нет зарегистрированных пользователей и гости: 1


Вы не можете начинать темы
Вы не можете отвечать на сообщения
Вы не можете редактировать свои сообщения
Вы не можете удалять свои сообщения
Вы не можете добавлять вложения

Перейти:  

!ВНИМАНИЕ!
 Ресурс не предоставляет электронные версии произведений, а занимается лишь коллекционированием и каталогизацией ссылок, присылаемых и публикуемых на форуме нашими читателями. Если вы являетесь правообладателем какого-либо представленного материала и не желаете чтобы ссылка на него находилась в нашем каталоге, свяжитесь с нами и мы незамедлительно удалим её. Файлы для обмена на трекере предоставлены пользователями сайта, и администрация не несёт ответственности за их содержание. Просьба не заливать файлы, защищенные авторскими правами, а также файлы нелегального содержания!