На всех торрентах на трекере установлена скидка на скачивание в размере 100 процентов(а).
 Возможность скачивания торрента НЕ зависит от ограничений при низком ратио, низком аплоаде, требуемом ратио или требуемом аплоаде.


Начать новую тему Ответить на тему
Статистика раздачи
Размер: 11.78 ГБ | Добавлен: 18 июл 2013, 17:28 | Скачали: 60
Сидеров: 14  [0 байт/сек]    Личеров: 1  [0 байт/сек]
Пред. тема | След. тема 

Автор
Сообщение

СообщениеДобавлено: 18 июл 2013, 17:28 

Название: G.I. Joe: Бросок кобры 2
Оригинальное название: G.I. Joe: Retaliation
Год выпуска: 2013
Жанр: Фантастика, боевик, триллер, приключения
Выпущено: США, Di Bonaventura Pictures, Hasbro Inc., Metro-Goldwyn-Mayer (MGM), Paramount Pictures, Skydance Productions
Режиссер: Джон М. Чу

В ролях: Дуэйн Джонсон, Эдрианн Палики, Брюс Уиллис, Рэй Парк, Ли Бён Хон, Ди Джей Котрона, Джонатан Прайс, Элоди Юнг, Ченнинг Татум, Люк Брейси, Рэй Стивенсон, Уолтон Гоггинс, Арнольд Вослу, Джозеф Маццелло, Ник Эриксон, RZA, Наим Альхерими, Рави Найду, Мэтт Джералд, Дуглас М. Гриффин, Джо Крест, Джеймс Карвилл, Райан Хансен, ДеРэй Дэвис, Нэйтан Такасигэ

О фильме: Во второй части отряд «G.I. Joe» вновь объявит вызов группировке «Кобра» и вступит в противостояние с правительством…




Качество: BDRip (1080p)
Видео: MPEG-4 AVC, 11.1 Мбит/с, 1920x1080, 23.976 кадр/с
Аудио: Русский (DTS, 6 ch, 1510 Кбит/с), (AC3, 6 ch, 640 Кбит/с), английский (DTS, 6 ch, 1510 Кбит/с), (AC3, 2 ch, 224 Кбит/с)

Продолжительность: 01:50:14
Перевод: Дублированный [лицензия]
Субтитры: Русские, украинские, английские

Стереоформат: Горизонтальная анаморфная стереопара. Для просмотра этого фильма в 3D формате необходимо соответствующее оборудование.

Format : Matroska
File size : 11.8 GiB
Duration : 1h 50mn
Overall bit rate : 15.3 Mbps
Encoded date : UTC 2013-07-18 11:17:31
Writing application : mkvmerge v4.9.1 ('Ich will') built on Jul 11 2011 23:53:15
Writing library : libebml v1.2.1 + libmatroska v1.1.1

Video
ID : 1
Format : AVC
Format/Info : Advanced Video Codec
Format profile : High@L4.1
Format settings, CABAC : Yes
Format settings, ReFrames : 4 frames
Codec ID : V_MPEG4/ISO/AVC
Duration : 1h 50mn
Bit rate : 11.1 Mbps
Width : 1 920 pixels
Height : 1 080 pixels
Display aspect ratio : 16:9
Frame rate : 23.976 fps
Color space : YUV
Chroma subsampling : 4:2:0
Bit depth : 8 bits
Scan type : Progressive
Bits/(Pixel*Frame) : 0.223
Stream size : 8.55 GiB (73%)
Title : G.I.Joe.Retaliation.2013.3D.1080p.Bluray.HSBS.X264.ENG.AC3-HDWinG
Writing library : x264 core 135 r2345 f0c1c53
Encoding settings : cabac=1 / ref=4 / deblock=1:-3:-3 / analyse=0x3:0x113 / me=umh / subme=10 / psy=1 / psy_rd=1.00:0.15 / mixed_ref=1 / me_range=32 / chroma_me=1 / trellis=2 / 8x8dct=1 / cqm=0 / deadzone=21,11 / fast_pskip=1 / chroma_qp_offset=-3 / threads=36 / lookahead_threads=3 / sliced_threads=0 / nr=0 / decimate=1 / interlaced=0 / bluray_compat=0 / constrained_intra=0 / bframes=6 / b_pyramid=2 / b_adapt=1 / b_bias=0 / direct=3 / weightb=1 / open_gop=0 / weightp=2 / keyint=250 / keyint_min=23 / scenecut=40 / intra_refresh=0 / rc_lookahead=40 / rc=crf / mbtree=1 / crf=18.0 / qcomp=0.60 / qpmin=10 / qpmax=69 / qpstep=4 / vbv_maxrate=40000 / vbv_bufsize=30000 / crf_max=0.0 / nal_hrd=none / ip_ratio=1.40 / aq=1:1.00

Audio #1
ID : 2
Format : DTS
Format/Info : Digital Theater Systems
Codec ID : A_DTS
Duration : 1h 50mn
Bit rate mode : Constant
Bit rate : 1 510 Kbps
Channel(s) : 6 channels
Channel positions : Front: L C R, Side: L R, LFE
Sampling rate : 48.0 KHz
Bit depth : 24 bits
Compression mode : Lossy
Stream size : 1.16 GiB (10%)
Title : DTS 5.1 / 1536 kbps / Dub (Paramount Pictures)
Language : Russian

Audio #2
ID : 3
Format : AC-3
Format/Info : Audio Coding 3
Mode extension : CM (complete main)
Codec ID : A_AC3
Duration : 1h 50mn
Bit rate mode : Constant
Bit rate : 640 Kbps
Channel(s) : 6 channels
Channel positions : Front: L C R, Side: L R, LFE
Sampling rate : 48.0 KHz
Bit depth : 16 bits
Compression mode : Lossy
Stream size : 505 MiB (4%)
Title : AC3 5.1 / 640 kbps / Dub (Blu-ray CEE)
Language : Russian

Audio #3
ID : 4
Format : DTS
Format/Info : Digital Theater Systems
Codec ID : A_DTS
Duration : 1h 50mn
Bit rate mode : Constant
Bit rate : 1 510 Kbps
Channel(s) : 6 channels
Channel positions : Front: L C R, Side: L R, LFE
Sampling rate : 48.0 KHz
Bit depth : 24 bits
Compression mode : Lossy
Stream size : 1.16 GiB (10%)
Title : DTS 5.1 / 1536 kbps / Original
Language : English

Audio #4
ID : 5
Format : AC-3
Format/Info : Audio Coding 3
Mode extension : CM (complete main)
Codec ID : A_AC3
Duration : 1h 50mn
Bit rate mode : Constant
Bit rate : 224 Kbps
Channel(s) : 2 channels
Channel positions : Front: L R
Sampling rate : 48.0 KHz
Bit depth : 16 bits
Compression mode : Lossy
Stream size : 177 MiB (1%)
Title : Commentary
Language : English

Text #1
ID : 6
Format : UTF-8
Codec ID : S_TEXT/UTF8
Codec ID/Info : UTF-8 Plain Text
Language : Russian

Text #2
ID : 7
Format : UTF-8
Codec ID : S_TEXT/UTF8
Codec ID/Info : UTF-8 Plain Text
Language : Ukrainian

Text #3
ID : 8
Format : UTF-8
Codec ID : S_TEXT/UTF8
Codec ID/Info : UTF-8 Plain Text
Language : English

Menu
00:00:00.000 : en:Chapter 1
00:06:08.242 : en:Chapter 2
00:12:52.313 : en:Chapter 3
00:17:35.471 : en:Chapter 4
00:25:37.369 : en:Chapter 5
00:30:56.187 : en:Chapter 6
00:39:00.880 : en:Chapter 7
00:42:40.975 : en:Chapter 8
00:48:31.241 : en:Chapter 9
00:54:02.989 : en:Chapter 10
01:01:46.536 : en:Chapter 11
01:07:34.675 : en:Chapter 12
01:13:56.807 : en:Chapter 13
01:17:54.461 : en:Chapter 14
01:23:45.979 : en:Chapter 15
01:31:12.758 : en:Chapter 16
01:41:13.358 : en:Chapter 17




Релиз от: Womanizer0
загрузка...
Правила, инструкции, FAQ!!!
Торрент  Добавлен [18 июл 2013, 17:28] Скачать торрент
Скачать торрент
[ Размер 59.27 КБ / Просмотров 11 ]

Статус  
 
Размер  11.78 ГБ
Приватный: Нет (DHT включён)
.torrent скачан  60
Как залить торрент? | Как скачать Torrent? | Как смотреть и слушать онлайн?  


     Отправить личное сообщение
   
Страница 1 из 1
Показать сообщения за:  Поле сортировки  
Начать новую тему Ответить на тему

   Похожие торренты   Автор   Ответы   Просмотры   Последнее сообщение 
В этой теме нет новых непрочитанных сообщений. Скачать торрент Проверен Бросок кобры / G.I. Joe: The Rise of Cobra (2009) BDRip 720p

в форуме 720p | 1080p, Размер: 4.85 ГБ, Здоровье: 100%

Anonymous

0
13|2

36
435

15 авг 2014, 10:13

Anonymous Перейти к последнему сообщению

В этой теме нет новых непрочитанных сообщений. Скачать торрент Бросок кобры / G.I. Joe: The Rise of Cobra (Стивен Соммерс / Stephen Sommers) [2009 г., Чехия, США, фантастика, боевик, приключения, экшн, BDRip] Dub + Orig + Sub (Rus, Eng)

в форуме Фантастика, Фэнтези, Размер: 2.19 ГБ, Здоровье: 100%

Anonymous

0
56|19

53
0

12 фев 2014, 08:16

Anonymous Перейти к последнему сообщению

В этой теме нет новых непрочитанных сообщений. Скачать торрент Гравитация / Gravity (2013) BDRip 1080p от Ash61 | 3D-Video | halfOU | Лицензия

в форуме HD-Video в 3D, Размер: 12.09 ГБ, Здоровье: 100%

Anonymous

0
195|18

131
512

14 фев 2014, 17:51

Anonymous Перейти к последнему сообщению

В этой теме нет новых непрочитанных сообщений. Скачать торрент Проверен Реальная белка / The Nut Job (2013) BDRip 1080p от Ash61 | 3D-Video | halfOU | Лицензия

в форуме HD-Video в 3D, Размер: 5.35 ГБ, Здоровье: 100%

Anonymous

0
40|1

128
112

24 май 2014, 11:47

Anonymous Перейти к последнему сообщению

В этой теме нет новых непрочитанных сообщений. Скачать торрент Конь-огонь / Get a Horse! (2013) BDRip 1080p от Ash61 | 3D-Video | halfOU | Лицензия

в форуме HD-Video в 3D, Размер: 285.81 МБ, Здоровье: 100%

Anonymous

0
20|1

133
53

06 апр 2014, 18:17

Anonymous Перейти к последнему сообщению



Сейчас этот форум просматривают: нет зарегистрированных пользователей и гости: 1


Вы не можете начинать темы
Вы не можете отвечать на сообщения
Вы не можете редактировать свои сообщения
Вы не можете удалять свои сообщения
Вы не можете добавлять вложения

Перейти:  

!ВНИМАНИЕ!
 Ресурс не предоставляет электронные версии произведений, а занимается лишь коллекционированием и каталогизацией ссылок, присылаемых и публикуемых на форуме нашими читателями. Если вы являетесь правообладателем какого-либо представленного материала и не желаете чтобы ссылка на него находилась в нашем каталоге, свяжитесь с нами и мы незамедлительно удалим её. Файлы для обмена на трекере предоставлены пользователями сайта, и администрация не несёт ответственности за их содержание. Просьба не заливать файлы, защищенные авторскими правами, а также файлы нелегального содержания!