На всех торрентах на трекере установлена скидка на скачивание в размере 100 процентов(а).
 Возможность скачивания торрента НЕ зависит от ограничений при низком ратио, низком аплоаде, требуемом ратио или требуемом аплоаде.


Начать новую тему Ответить на тему
Статистика раздачи
Размер: 5.19 ГБ | Добавлен: 07 фев 2015, 17:45 | Скачали: 208
Сидеров: 124  [0 байт/сек]    Личеров: 4  [0 байт/сек]
Пред. тема | След. тема 

Автор
Сообщение

СообщениеДобавлено: 07 фев 2015, 17:45 

Название: Астерикс: Земля Богов
Оригинальное название: Astérix: Le domaine des dieux
Год выхода: 2014
Жанр: мультфильм, приключения, фэнтези, комедия
Режиссер: Луис Клиши
В ролях: Роже Карель, Лоран Дойч, Лоран Лафитт, Александр Астье, Ален Шаба, Эли Семун, Жеральдин Накаш, Артюс де Пенгерн, Лионель Астье, Франсуа Морель

О фильме:
Астерикс и его лучший друг Обеликс продолжают свою многолетнюю борьбу с Цезарем, который хочет наконец-то расправиться с неукротимыми галлами. Вокруг деревни Астерикса Цезарь приказывает построить новый Рим - Землю Богов. В галльской деревне хаос и смятение. Но Астерикс и Обеликс не сдаются!



Страна: Франция
Студия: Belvision, Canal+ [fr], Grid Animation
Продолжительность: 01:25:34
Перевод: Профессиональный (полное дублирование) Blu-ray 3D

Релиз:
Формат: Matroska
Видео: 1920x1080 at 23.976 fps, x264@L4.1, crf, ~6996 kbps avg
Аудио: Russian: 48 kHz/16-bit, DTS, 3/2 (L,C,R,l,r) + LFE ch, ~1536.00 kbps avg |Дубляж|
Субтитры: None

General
Unique ID : 200580953056470447807324210964723159546 (0x96E67C832BE9504CA4BEAEC4943851FA)
Complete name : Asteriks.Zemlya.bogov.2014.3D.BDRip.1080p.Half-OU.mkv
Format : Matroska
Format version : Version 4 / Version 2
File size : 5.19 GiB
Duration : 1h 25mn
Overall bit rate : 8 678 Kbps
Encoded date : UTC 2015-02-06 17:16:59
Writing application : mkvmerge v7.5.0 ('Glass Culture') 64bit built on Jan 4 2015 16:48:44
Writing library : libebml v1.3.1 + libmatroska v1.4.2
Attachment : Yes

Video
ID : 1
Format : AVC
Format/Info : Advanced Video Codec
Format profile : High@L4.1
Format settings, CABAC : Yes
Format settings, ReFrames : 4 frames
Codec ID : V_MPEG4/ISO/AVC
Duration : 1h 25mn
Bit rate : 6 996 Kbps
Width : 1 920 pixels
Height : 1 080 pixels
Display aspect ratio : 16:9
Frame rate mode : Constant
Frame rate : 23.976 fps
Color space : YUV
Chroma subsampling : 4:2:0
Bit depth : 8 bits
Scan type : Progressive
Bits/(Pixel*Frame) : 0.141
Stream size : 4.18 GiB (81%)
Title : Asterix: The Mansions of the Gods (2014) 3D Half-OU 1080p BDRip
Writing library : x264 core 144 r2525kMod 40bb568
Encoding settings : cabac=1 / ref=4 / deblock=1:-3:-3 / analyse=0x3:0x113 / me=umh / subme=10 / psy=1 / fade_compensate=0.00 / psy_rd=1.00:0.00 / mixed_ref=1 / me_range=32 / chroma_me=1 / trellis=2 / 8x8dct=1 / cqm=0 / deadzone=21,11 / fast_pskip=0 / chroma_qp_offset=-2 / threads=12 / lookahead_threads=2 / sliced_threads=0 / nr=0 / decimate=1 / interlaced=0 / bluray_compat=0 / constrained_intra=0 / fgo=0 / bframes=8 / b_pyramid=2 / b_adapt=2 / b_bias=0 / direct=3 / weightb=1 / open_gop=0 / weightp=2 / keyint=250 / keyint_min=23 / scenecut=40 / intra_refresh=0 / rc_lookahead=50 / rc=crf / mbtree=0 / crf=17.0000 / qcomp=0.60 / qpmin=0 / qpmax=69 / qpstep=4 / vbv_maxrate=62500 / vbv_bufsize=78125 / crf_max=0.0 / nal_hrd=none / filler=0 / frame-packing=4 / ip_ratio=1.40 / pb_ratio=1.30 / aq=1:1.00
Language : Russian
Default : Yes
Forced : No

Audio
ID : 2
Format : DTS
Format/Info : Digital Theater Systems
Mode : 16
Format settings, Endianness : Big
Codec ID : A_DTS
Duration : 1h 25mn
Bit rate mode : Constant
Bit rate : 1 509 Kbps
Channel(s) : 6 channels
Channel positions : Front: L C R, Side: L R, LFE
Sampling rate : 48.0 KHz
Bit depth : 16 bits
Compression mode : Lossy
Stream size : 924 MiB (17%)
Title : [BD Rus] Dub - DTS 5.1 @ 1536 kbps
Language : Russian
Default : Yes
Forced : No

Menu
00:00:00.000 : :CHAPTER №01
00:09:02.208 : :CHAPTER №02
00:20:30.187 : :CHAPTER №03
00:31:00.525 : :CHAPTER №04
00:44:12.316 : :CHAPTER №05
00:56:11.201 : :CHAPTER №06
01:04:48.718 : :CHAPTER №07
01:17:21.762 : :CHAPTER №08
загрузка...
Правила, инструкции, FAQ!!!
Торрент  Добавлен [07 фев 2015, 17:45] Скачать торрент
Скачать торрент
[ Размер 13.53 КБ / Просмотров 22 ]

Статус
Проверен 
 
Размер  5.19 ГБ
Приватный: Нет (DHT включён)
.torrent скачан  208
Как залить торрент? | Как скачать Torrent? | Как смотреть и слушать онлайн?  


     Отправить личное сообщение
   
Страница 1 из 1
Показать сообщения за:  Поле сортировки  
Начать новую тему Ответить на тему

   Похожие торренты   Автор   Ответы   Просмотры   Последнее сообщение 
В этой теме нет новых непрочитанных сообщений. Скачать торрент Проверен Астерикс: Земля Богов / Astérix: Le domaine des dieux (2014) BDRip 720p | Лицензия

в форуме Зарубежные мультфильмы (HD Video), Размер: 2.91 ГБ, Здоровье: 94%

Гость

0
151|159

197
152

07 фев 2015, 17:26

Гость Перейти к последнему сообщению

В этой теме нет новых непрочитанных сообщений. Скачать торрент Проверен Астерикс: Земля Богов / Asterix: Le domaine des dieux (2014) HDRip | Лицензия

в форуме Зарубежные мультфильмы, Размер: 1.37 ГБ, Здоровье: 100%

Гость

0
861|178

173
3041

07 фев 2015, 08:54

Гость Перейти к последнему сообщению

В этой теме нет новых непрочитанных сообщений. Скачать торрент Проверен Астерикс: Земля Богов в 3Д / Astérix: Le domaine des dieux / Asterix: The Mansions of the Gods 3D (Л.Клиши, А.Астье / L.Clichy, A.Astier) [2014, Мультфильм, Приключения, Фэнтези, Комедия, BDrip, 1080p] OverUnder / Вертикальная стереопара

в форуме 3D Мультфильмы, Размер: 7.85 ГБ, Здоровье: 0%

Anonymous

0
0|0

5
0

07 сен 2016, 17:58

Anonymous Перейти к последнему сообщению

В этой теме нет новых непрочитанных сообщений. Скачать торрент Проверен Астерикс: Земля Богов в 3Д / Astérix: Le domaine des dieux / Asterix: The Mansions of the Gods 3D (Л.Клиши, А.Астье / L.Clichy, A.Astier) [2014, Мультфильм, Приключения, Комедия, BDrip-AVC] Half OverUnder / Вертикальная анаморфная стереопара

в форуме 3D Мультфильмы, Размер: 4.12 ГБ, Здоровье: 0%

Anonymous

0
0|0

5
0

07 сен 2016, 18:18

Anonymous Перейти к последнему сообщению

В этой теме нет новых непрочитанных сообщений. Скачать торрент Проверен Астерикс: Земля Богов 3Д / Astérix: Le domaine des dieux 3D (Луис Клиши / Louis Clichy, Александр Астье / Alexandre Astier) [2014, Франция, мультфильм, приключения, фэнтези, комедия, Blu-ray Disc 1080p] BD3D

в форуме 3D Мультфильмы, Размер: 19.99 ГБ, Здоровье: 0%

Anonymous

0
0|0

3
0

07 сен 2016, 17:37

Anonymous Перейти к последнему сообщению



Сейчас этот форум просматривают: нет зарегистрированных пользователей и гости: 1


Вы не можете начинать темы
Вы не можете отвечать на сообщения
Вы не можете редактировать свои сообщения
Вы не можете удалять свои сообщения
Вы не можете добавлять вложения

Перейти:  

!ВНИМАНИЕ!
 Ресурс не предоставляет электронные версии произведений, а занимается лишь коллекционированием и каталогизацией ссылок, присылаемых и публикуемых на форуме нашими читателями. Если вы являетесь правообладателем какого-либо представленного материала и не желаете чтобы ссылка на него находилась в нашем каталоге, свяжитесь с нами и мы незамедлительно удалим её. Файлы для обмена на трекере предоставлены пользователями сайта, и администрация не несёт ответственности за их содержание. Просьба не заливать файлы, защищенные авторскими правами, а также файлы нелегального содержания!