На всех торрентах на трекере установлена скидка на скачивание в размере 100 процентов(а).
 Возможность скачивания торрента НЕ зависит от ограничений при низком ратио, низком аплоаде, требуемом ратио или требуемом аплоаде.


Начать новую тему Ответить на тему
Статистика раздачи
Размер: 12.2 ГБ | Добавлен: 28 ноя 2014, 20:38 | Скачали: 1
Сидеров: 72  [0 байт/сек]    Личеров: 7  [0 байт/сек]
Пред. тема | След. тема 

Автор
Сообщение

СообщениеДобавлено: 28 ноя 2014, 20:38 

Год выпуска: 2014
Производство: США, Offspring Entertainment, Summit Entertainment
Жанр: Драма, Мелодрама, Музыка

Описание фильма:
В переливающемся огнями Лас-Вегасе лучшие танцоры планеты сойдутся в батле, который решит все. Талантливый самоучка Шон и красотка Энди, мечтающие о славе и богатстве, примут участие в популярном реалити-шоу и бросят вызов «непобедимым» командам противников, а главное — самим себе. Смогут ли они преодолеть страх, пережить предательство и обуздать страсть, чтобы стать первыми и осуществить свои мечты?

Режиссер: Триш Си
Продюсер: Дженнифер Джибгот, Адам Шенкман, Джефф Диаз
Актеры: Райан Гузман, Бриана Эвиган, Стивен Босс, Миша Гэбриел Хэмилтон, Изабелла Мико, Элисон Стоунер, Адам Дж. Севани, Стивен Стево Джонс, Дэвид Шрейбман, Мари Кода

Перевод: Дублированный (iTunes)
Субтитры: Отсутствуют



Рейтинг MPAA: PG-13
Возраст: 12+

Дата мировой премьеры: 9 июля 2014
Дата российской премьеры: 17 июля 2014, «Централ Партнершип»
Дата выхода DVD релиза: 16 декабря 2014, «CD Land»

Продолжительность: 01:51:51
Качество видео: BDRip

Видеокодек: MPEG-4 AVC/H.264
Битрейт видео: ~14,3 Мбит/сек
Размер кадра: 1920x1080
Аудио 1: AC3 5.1, 384 kbps [Русский]
Аудио 2: AC3 5.1, 640 kbps [Английский]
За исходный диск - спасибо HDA!
Общее
Уникальный идентификатор : 178084156634573882038827821191699186468 (0x85F9C2D021E026B3AD368F3FADDD4324)
Полное имя : F:\my films\STEP_UP_ALL_IN_3D.mkv
Формат : Matroska
Версия формата : Version 2
Размер файла : 12,2 Гбайт
Продолжительность : 1 ч. 51 м.
Общий поток : 15,6 Мбит/сек
Название фильма : STEP_UP_ALL_IN_3D_Half_O/U
Дата кодирования : UTC 2014-11-27 18:22:34
Программа кодирования : mkvmerge v5.7.0 ('The Whirlwind') built on Aug 7 2012 14:11:40
Библиотека кодирования : libebml v1.2.3 + libmatroska v1.3.0

Видео
Идентификатор : 1
Формат : AVC
Формат/Информация : Advanced Video Codec
Профиль формата :
Параметр CABAC формата : Да
Параметр ReFrames формата : 4 кадра
Идентификатор кодека : V_MPEG4/ISO/AVC
Продолжительность : 1 ч. 51 м.
Битрейт : 14,3 Мбит/сек
Ширина : 1920 пикселей
Высота : 1080 пикселей
Соотношение сторон : 16:9
Режим частоты кадров : Постоянный
Частота кадров : 23,976 кадра/сек
Цветовое пространство : YUV
Субдискретизация насыщенности : 4:2:0
Битовая глубина : 8 бит
Тип развёртки : Прогрессивная
Бит/(Пиксели*Кадры) : 0.287
Размер потока : 11,2 Гбайт (91%)
Заголовок : rip by I/N
Библиотека кодирования : x264 core 128 r2216M 198a7ea
Настройки программы : cabac=1 / ref=4 / deblock=1:-3:-3 / analyse=0x3:0x133 / me=umh / subme=10 / psy=1 / psy_rd=1.00:0.15 / mixed_ref=1 / me_range=32 / chroma_me=1 / trellis=2 / 8x8dct=1 / cqm=0 / deadzone=0,0 / fast_pskip=0 / chroma_qp_offset=-3 / threads=8 / lookahead_threads=1 / sliced_threads=0 / nr=0 / decimate=1 / interlaced=0 / bluray_compat=0 / constrained_intra=0 / bframes=8 / b_pyramid=2 / b_adapt=2 / b_bias=0 / direct=3 / weightb=1 / open_gop=0 / weightp=2 / keyint=230 / keyint_min=23 / scenecut=40 / intra_refresh=0 / rc_lookahead=60 / rc=crf / mbtree=1 / crf=17.0 / qcomp=0.60 / qpmin=0 / qpmax=69 / qpstep=4 / vbv_maxrate=40000 / vbv_bufsize=30000 / crf_max=30.0 / nal_hrd=none / ip_ratio=1.40 / aq=1:0.90
Язык : English
Default : Да
Forced : Нет

Аудио #1
Идентификатор : 2
Формат : AC-3
Формат/Информация : Audio Coding 3
Расширение режима : CM (complete main)
Параметр Endianness формата : Big
Идентификатор кодека : A_AC3
Продолжительность : 1 ч. 51 м.
Вид битрейта : Постоянный
Битрейт : 384 Кбит/сек
Каналы : 6 каналов
Расположение каналов : Front: L C R, Side: L R, LFE
Частота : 48,0 КГц
Битовая глубина : 16 бит
Метод сжатия : С потерями
Размер потока : 307 Мбайт (2%)
Заголовок : Дубляж (iTunes)
Язык : Russian
Default : Да
Forced : Нет

Аудио #2
Идентификатор : 3
Формат : AC-3
Формат/Информация : Audio Coding 3
Расширение режима : CM (complete main)
Параметр Endianness формата : Big
Идентификатор кодека : A_AC3
Продолжительность : 1 ч. 51 м.
Вид битрейта : Постоянный
Битрейт : 640 Кбит/сек
Каналы : 6 каналов
Расположение каналов : Front: L C R, Side: L R, LFE
Частота : 48,0 КГц
Битовая глубина : 16 бит
Метод сжатия : С потерями
Размер потока : 512 Мбайт (4%)
Заголовок : Original
Язык : English
Default : Нет
Forced : Нет

Меню
00:00:00.000 : en:00:00:00.000
00:05:40.340 : en:00:05:40.340
00:12:05.934 : en:00:12:05.934
00:22:48.617 : en:00:22:48.617
00:28:10.898 : en:00:28:10.898
00:35:50.732 : en:00:35:50.732
00:40:40.855 : en:00:40:40.855
00:51:09.024 : en:00:51:09.024
00:57:54.846 : en:00:57:54.846
01:03:10.245 : en:01:03:10.245
01:07:06.231 : en:01:07:06.231
01:14:24.043 : en:01:14:24.043
01:26:01.740 : en:01:26:01.740
01:29:24.109 : en:01:29:24.109
01:36:00.338 : en:01:36:00.338
01:45:41.919 : en:01:45:41.919
01:51:51.121 : en:01:51:51.121
Скриншоты:


загрузка...
Правила, инструкции, FAQ!!!
Торрент  Добавлен [28 ноя 2014, 20:38] Скачать торрент
Скачать торрент
[ Размер 61.82 КБ / Просмотров 20 ]

Статус
Проверен 
 
Размер  12.2 ГБ
Приватный: Нет (DHT включён)
.torrent скачан  1
Как залить торрент? | Как скачать Torrent? | Как смотреть и слушать онлайн?  


     Отправить личное сообщение
   
Страница 1 из 1
Показать сообщения за:  Поле сортировки  
Начать новую тему Ответить на тему

   Похожие торренты   Автор   Ответы   Просмотры   Последнее сообщение 
В этой теме нет новых непрочитанных сообщений. Скачать торрент Помпеи / Pompeii (2014) BDRip [1080p] 3D [Вертикальная анаморфная стереопара] [Line]

в форуме HD-Video в 3D, Размер: 10.29 ГБ, Здоровье: 0%

Anonymous

0
0|0

102
4

03 май 2014, 07:57

Anonymous Перейти к последнему сообщению

В этой теме нет новых непрочитанных сообщений. Скачать торрент Проверен Приключения мистера Пибоди и Шермана / Mr. Peabody & Sherman (2014) BDRip [1080p] 3D [Вертикальная анаморфная стереопара]

в форуме HD-Video в 3D, Размер: 10.28 ГБ, Здоровье: 0%

Anonymous

0
0|0

103
0

04 авг 2014, 09:20

Anonymous Перейти к последнему сообщению

В этой теме нет новых непрочитанных сообщений. Скачать торрент Проверен Золушка: Полный вперед! в 3Д / Cendrillon au Far West 3D (Паскаль Эрольд / Pascal Hérold) [2012, мультфильм, комедия, приключения, BDrip-AVC] Half OverUnder / Вертикальная анаморфная стереопара

в форуме 3D Мультфильмы, Размер: 8.57 ГБ, Здоровье: 0%

Anonymous

0
0|0

2
0

07 сен 2016, 18:15

Anonymous Перейти к последнему сообщению

В этой теме нет новых непрочитанных сообщений. Скачать торрент Четверо 2 / Si Da Ming Bu 2 / The Four 2 (2013) BDRip [1080p] 3D [Вертикальная анаморфная стереопара]

в форуме HD-Video в 3D, Размер: 16.87 ГБ, Здоровье: 100%

Anonymous

0
23|2

111
0

23 мар 2014, 00:18

Anonymous Перейти к последнему сообщению

В этой теме нет новых непрочитанных сообщений. Скачать торрент Лучшее в 3Д / Best of 3D (2012 - 2013) BDRip [1080p] 3D [Вертикальная анаморфная стереопара]

в форуме HD-Video в 3D, Размер: 35.86 ГБ, Здоровье: 100%

Anonymous

0
58|4

177
0

09 янв 2014, 22:26

Anonymous Перейти к последнему сообщению



Сейчас этот форум просматривают: нет зарегистрированных пользователей и гости: 1


Вы не можете начинать темы
Вы не можете отвечать на сообщения
Вы не можете редактировать свои сообщения
Вы не можете удалять свои сообщения
Вы не можете добавлять вложения

Перейти:  

!ВНИМАНИЕ!
 Ресурс не предоставляет электронные версии произведений, а занимается лишь коллекционированием и каталогизацией ссылок, присылаемых и публикуемых на форуме нашими читателями. Если вы являетесь правообладателем какого-либо представленного материала и не желаете чтобы ссылка на него находилась в нашем каталоге, свяжитесь с нами и мы незамедлительно удалим её. Файлы для обмена на трекере предоставлены пользователями сайта, и администрация не несёт ответственности за их содержание. Просьба не заливать файлы, защищенные авторскими правами, а также файлы нелегального содержания!