На всех торрентах на трекере установлена скидка на скачивание в размере 100 процентов(а).
 Возможность скачивания торрента НЕ зависит от ограничений при низком ратио, низком аплоаде, требуемом ратио или требуемом аплоаде.


Начать новую тему Ответить на тему
Статистика раздачи
Размер: 6.23 ГБ | Добавлен: 02 ноя 2014, 09:57 | Скачали: 0
Сидеров: 30  [0 байт/сек]    Личеров: 10  [0 байт/сек]
Пред. тема | След. тема 

Автор
Сообщение

СообщениеДобавлено: 02 ноя 2014, 09:57 

Ceмeйкa Kрудc / Тhе Сrооds

Год выпуска: 2013
Страна: США
Студия: 20th Century Fox, DreamWorks Animation
Жанр: мультфильм, фэнтези, комедия, приключения,семейный
Продолжительность: 01:38:36

Перевод: Профессиональный (дублированный)

Режиссер: Крис Сандерс , Кирк де Микко / Chris Sanders, Kirk De Micco
В ролях:
Grug - Николас Кейдж (Дмитрий Назаров)
Eep - Эмма Стоун (Нюша Шурочкина)
Guy - Райан Рейнольдс (Егор Дружинин)
Ugga- Кэтрин Кинер
Gran (Большой)- Клорис Личмен (Александра Назарова)
Thunk - Кларк Дьюк (Руслан Мещанов)
Belt - Крис Сандерс

Описание: Землетрясение уничтожило дом доисторической семьи, и теперь Крудсам придётся искать другое пристанище. А вокруг новый и опасный мир! Им на помощь приходит молодой кочевник Малой, передовые взгляды которого наталкиваются на консервативность главы семьи Груга. Но только вместе они смогут выжить и достичь своей цели…

Качество: BDrip
Контейнер: MKV
Формат 3D: Анаглиф red-cyan (RAV)

Видео кодек: x264
Аудио кодек: AC3
Видео: MPEG4 Video (H264) 1920x1080 23.976fps 7 584 Kbps
Аудио: Русский /Дублированный Dolby AC3 48000Hz 6ch 640 Kbps
Аудио 2: English / Original Dolby AC3 48000Hz 6ch 640 Kbps
General
Format : Matroska
Format version : Version 2
File size : 6.23 GiB
Duration : 1h 38mn
Overall bit rate : 9 044 Kbps
Encoded date : UTC 2013-09-26 04:37:57
Writing application : mkvmerge v4.4.0 ('Die Wiederkehr') сборка от Oct 31 2010 21:52:48
Writing library : libebml v1.0.0 + libmatroska v1.0.0

Video
ID : 1
Format : AVC
Format/Info : Advanced Video Codec
Format profile : High@L4.1
Format settings, CABAC : Yes
Format settings, ReFrames : 4 frames
Codec ID : V_MPEG4/ISO/AVC
Duration : 1h 38mn
Bit rate : 7 584 Kbps
Width : 1 920 pixels
Height : 1 080 pixels
Display aspect ratio : 16:9
Frame rate mode : Constant
Frame rate : 23.976 fps
Color space : YUV
Chroma subsampling : 4:2:0
Bit depth : 8 bits
Scan type : Progressive
Bits/(Pixel*Frame) : 0.153
Stream size : 5.22 GiB (84%)
Title : RAV-anaglyph by Boss-Master
Writing library : x264 core 116 r2074 2641b9e
Encoding settings : cabac=1 / ref=4 / deblock=1:-3:-3 / analyse=0x3:0x113 / me=umh / subme=9 / psy=1 / psy_rd=1.00:0.15 / mixed_ref=1 / me_range=32 / chroma_me=1 / trellis=2 / 8x8dct=1 / cqm=0 / deadzone=21,11 / fast_pskip=1 / chroma_qp_offset=-3 / threads=6 / sliced_threads=0 / nr=0 / decimate=1 / interlaced=0 / bluray_compat=0 / constrained_intra=0 / bframes=6 / b_pyramid=2 / b_adapt=2 / b_bias=0 / direct=3 / weightb=1 / open_gop=0 / weightp=2 / keyint=250 / keyint_min=23 / scenecut=40 / intra_refresh=0 / rc_lookahead=60 / rc=crf / mbtree=1 / crf=18.0 / qcomp=0.60 / qpmin=0 / qpmax=69 / qpstep=4 / vbv_maxrate=40000 / vbv_bufsize=40000 / crf_max=0.0 / nal_hrd=none / ip_ratio=1.40 / aq=1:0.70
Language : English
Default : Yes
Forced : No

Audio #1
ID : 2
Format : AC-3
Format/Info : Audio Coding 3
Mode extension : CM (complete main)
Format settings, Endianness : Big
Codec ID : A_AC3
Duration : 1h 38mn
Bit rate mode : Constant
Bit rate : 640 Kbps
Channel(s) : 6 channels
Channel positions : Front: L C R, Side: L R, LFE
Sampling rate : 48.0 KHz
Bit depth : 16 bits
Compression mode : Lossy
Stream size : 451 MiB (7%)
Language : Russian
Default : Yes
Forced : No

Audio #2
ID : 3
Format : AC-3
Format/Info : Audio Coding 3
Mode extension : CM (complete main)
Format settings, Endianness : Big
Codec ID : A_AC3
Duration : 1h 38mn
Bit rate mode : Constant
Bit rate : 640 Kbps
Channel(s) : 6 channels
Channel positions : Front: L C R, Side: L R, LFE
Sampling rate : 48.0 KHz
Bit depth : 16 bits
Compression mode : Lossy
Stream size : 451 MiB (7%)
Language : English
Default : No
Forced : No

Menu
00:00:00.000 : en:00:00:00.000
00:02:34.988 : en:00:02:34.988
00:04:51.750 : en:00:04:51.750
00:09:01.249 : en:00:09:01.249
00:12:21.115 : en:00:12:21.115
00:14:04.802 : en:00:14:04.802
00:18:33.029 : en:00:18:33.029
00:21:56.982 : en:00:21:56.982
00:23:24.737 : en:00:23:24.737
00:26:49.775 : en:00:26:49.775
00:28:37.132 : en:00:28:37.132
00:30:25.657 : en:00:30:25.657
00:32:48.633 : en:00:32:48.633
00:36:03.370 : en:00:36:03.370
00:38:33.561 : en:00:38:33.561
00:41:34.534 : en:00:41:34.534
00:44:38.843 : en:00:44:38.843
00:48:02.630 : en:00:48:02.630
00:52:10.961 : en:00:52:10.961
00:55:17.481 : en:00:55:17.481
01:00:14.778 : en:01:00:14.778
01:03:58.084 : en:01:03:58.084
01:05:48.736 : en:01:05:48.736
01:08:44.037 : en:01:08:44.037
01:10:47.285 : en:01:10:47.285
01:12:37.144 : en:01:12:37.144
01:14:01.646 : en:01:14:01.646
01:19:48.575 : en:01:19:48.575
01:23:09.860 : en:01:23:09.860
01:25:16.737 : en:01:25:16.737
01:28:04.321 : en:01:28:04.321
01:30:02.230 : en:01:30:02.230
Внимание! Для просмотра нужны анаглифные очки красно-синезеленые и обычный (не 3D) телевизор или монитор
загрузка...
Правила, инструкции, FAQ!!!
Торрент  Добавлен [02 ноя 2014, 09:57] Скачать торрент
Скачать торрент
[ Размер 16.16 КБ / Просмотров 34 ]

Статус
Проверен 
 
Размер  6.23 ГБ
Приватный: Нет (DHT включён)
.torrent скачан  0
Как залить торрент? | Как скачать Torrent? | Как смотреть и слушать онлайн?  


     Отправить личное сообщение
   
Страница 1 из 1
Показать сообщения за:  Поле сортировки  
Начать новую тему Ответить на тему

   Похожие торренты   Автор   Ответы   Просмотры   Последнее сообщение 
В этой теме нет новых непрочитанных сообщений. Скачать торрент Проверен Ceмeйкa Kрудc в 3Д / Тhе Сrооds 3D (Кирк де Микко, Крис / Kirk De Micco,Chris) [2013, мультфильм, фэнтези, комедия, приключения,семейный, BDrip, 1080p] OverUnder / Вертикальная стереопара

в форуме HD-Video в 3D, Размер: 10.27 ГБ, Здоровье: 100%

Anonymous

0
19|6

156
0

02 ноя 2014, 09:57

Anonymous Перейти к последнему сообщению

В этой теме нет новых непрочитанных сообщений. Скачать торрент Проверен Семейка Крудс 3Д / The Crood 3D (Кирк де Микко / Kirk De Micco, Крис Сандерс / Chris Sanders) [2013, США, мультфильм, фэнтези, комедия, приключения, семейный, BDRemux 1080p 2D/3D] Dub + 2xAVO + Dub (Ukr) + Original (Eng) + Subs (Rus, Ukr, Eng) [BD3D]

в форуме 3D Мультфильмы, Размер: 44.75 ГБ, Здоровье: 0%

Anonymous

0
0|0

10
0

07 сен 2016, 18:14

Anonymous Перейти к последнему сообщению

В этой теме нет новых непрочитанных сообщений. Скачать торрент Проверен Семейка Крудс 3Д / The Croods 3D (Кирк де Микко / Kirk De Micco, Крис Сандерс / Chris Sanders) [2013, США, мультфильм, фэнтези, комедия, приключения, семейный, BDRip-AVC] Half OverUnder / Вертикальная анаморфная стереопара

в форуме 3D Мультфильмы, Размер: 11.36 ГБ, Здоровье: 0%

Anonymous

0
0|0

4
0

07 сен 2016, 18:17

Anonymous Перейти к последнему сообщению

В этой теме нет новых непрочитанных сообщений. Скачать торрент [MULT] Семейка Крудс / The Croods (Кирк де Микко / Kirk De Micco, Крис Сандерс / Chris Sanders) [2013, Мультфильм, комедия, приключения, семейный, HDRip] [MP4, 960x] Rus, Eng

в форуме Видео для смартфонов и КПК, Размер: 1.38 ГБ, Здоровье: 100%

Anonymous

0
1|0

88
0

30 янв 2014, 06:47

Anonymous Перейти к последнему сообщению

В этой теме нет новых непрочитанных сообщений. Скачать торрент Проверен Как приручить дракона 3Д / How to Train Your Dragon 3D (Дин ДеБлуа, Крис Сандерс / Dean DeBlois, Chris Sanders) [2010, США, мультфильм, фэнтези, комедия, приключения, семейный, HDRip - AVC] DUB | Anaglyph / Анаглиф

в форуме HD-Video в 3D, Размер: 1.64 ГБ, Здоровье: 100%

Anonymous

0
34|11

57
0

02 ноя 2014, 09:54

Anonymous Перейти к последнему сообщению



Сейчас этот форум просматривают: нет зарегистрированных пользователей и гости: 1


Вы не можете начинать темы
Вы не можете отвечать на сообщения
Вы не можете редактировать свои сообщения
Вы не можете удалять свои сообщения
Вы не можете добавлять вложения

Перейти:  

!ВНИМАНИЕ!
 Ресурс не предоставляет электронные версии произведений, а занимается лишь коллекционированием и каталогизацией ссылок, присылаемых и публикуемых на форуме нашими читателями. Если вы являетесь правообладателем какого-либо представленного материала и не желаете чтобы ссылка на него находилась в нашем каталоге, свяжитесь с нами и мы незамедлительно удалим её. Файлы для обмена на трекере предоставлены пользователями сайта, и администрация не несёт ответственности за их содержание. Просьба не заливать файлы, защищенные авторскими правами, а также файлы нелегального содержания!