На всех торрентах на трекере установлена скидка на скачивание в размере 100 процентов(а).
 Возможность скачивания торрента НЕ зависит от ограничений при низком ратио, низком аплоаде, требуемом ратио или требуемом аплоаде.


Начать новую тему Ответить на тему
Статистика раздачи
Размер: 4.63 ГБ | Добавлен: 02 ноя 2014, 09:55 | Скачали: 0
Сидеров: 9  [0 байт/сек]    Личеров: 3  [0 байт/сек]
Пред. тема | След. тема 

Автор
Сообщение

СообщениеДобавлено: 02 ноя 2014, 09:55 

Кунг-фу Панда 3D / Kung Fu Panda 3D

Год выпуска: 2008
Страна: США
Студия: DreamWorks Animation
Жанр: мультфильм, боевик, комедия, приключения, семейный
Продолжительность: 01:31:59

Перевод: Профессиональный (дублированный)
Русские субтитры: нет
Режиссер на русском: Марк Осборн
Режиссер на английском: Mark Osborne
В ролях: Джек Блэк (Po), Дастин Хоффман (Shifu), Анджелина Джоли (Tigress), Иэн МакШейн (Tai Lung), Джеки Чан (Monkey), Сет Роген (Mantis), Люси Лью (Viper), Дэвид Кросс (Crane), Рэндолл Дак Ким (Oogway), Джеймс Хонг (Mr. Ping), Дэн Фоглер (Zeng), Майкл Кларк Дункан (Commander Vachir)

Роли озвучивали: Михаил Галустян (Po), Александр Хотченков (Shifu), Алиса Гребенщикова (Tigress), Владимир Антоник (Tai Lung), Илья Лагутенко (Monkey), Олег Куценко (Mantis), Анна Семенович (Viper), Александр Гаврилин (Crane), Борис Быстров (Oogway), Олег Форостенко (Mr. Ping), Илья Бледный (Zeng), Владимир Зайцев (Commander Vachir)
Описание: Спасение Долины Мира и всех ее обитателей от непобедимого и безжалостного мастера Тай Лунга должно лечь на плечи Воина Дракона, Избранного среди лучших из лучших, коим становится… неуклюжий, ленивый и вечно голодный панда По.
Ему предстоит долгий и трудный путь к вершинам мастерства кунг-фу бок о бок с легендарными воинами: Тигрой, Обезьяной, Богомолом, Гадюкой и Журавлем. По постигнет тайну древнего Свитка и станет Воином Дракона только в том случае, если сможет поверить в себя…

Качество: BDrip
Контейнер: MKV
Формат 3D: Анаглиф red-cyan (Дюбуа)
Порядок ракурсов: левый ракурс первый
Видео кодек: h.264
Аудио кодек: AC3
Видео: CCV1 1920x816 23.98fps, 5 786 Kbps
Аудио: Русский / Дублированный, Dolby AC3 48000Hz 6ch 640 Kbps
Аудио 2: Украинский, Dolby AC3 48000Hz 6ch 640 Kbps
General
Format : Matroska
Format version : Version 2
File size : 4.63 GiB
Duration : 1h 31mn
Overall bit rate : 7 210 Kbps
Encoded date : UTC 2011-12-10 15:55:22
Writing application : mkvmerge v4.4.0 ('Die Wiederkehr') сборка от Oct 31 2010 21:52:48
Writing library : libebml v1.0.0 + libmatroska v1.0.0

Video
ID : 1
Format : AVC
Format/Info : Advanced Video Codec
Format profile : High@L4.0
Format settings, CABAC : Yes
Format settings, ReFrames : 4 frames
Codec ID : V_MPEG4/ISO/AVC
Duration : 1h 31mn
Bit rate : 5 786 Kbps
Width : 1 920 pixels
Height : 816 pixels
Display aspect ratio : 2.35:1
Frame rate : 23.976 fps
Color space : YUV
Chroma subsampling : 4:2:0
Bit depth : 8 bits
Scan type : Progressive
Bits/(Pixel*Frame) : 0.154
Stream size : 3.72 GiB (80%)
Title : Dubois anaglyph by Boss-Master
Writing library : x264 core 115 r1995 c1e60b9
Encoding settings : cabac=1 / ref=4 / deblock=1:-2:-2 / analyse=0x3:0x113 / me=umh / subme=9 / psy=1 / psy_rd=1.00:0.15 / mixed_ref=1 / me_range=16 / chroma_me=1 / trellis=2 / 8x8dct=1 / cqm=0 / deadzone=21,11 / fast_pskip=1 / chroma_qp_offset=-3 / threads=6 / sliced_threads=0 / nr=0 / decimate=1 / interlaced=0 / bluray_compat=0 / constrained_intra=0 / bframes=6 / b_pyramid=0 / b_adapt=2 / b_bias=0 / direct=3 / weightb=1 / open_gop=0 / weightp=2 / keyint=250 / keyint_min=23 / scenecut=40 / intra_refresh=0 / rc_lookahead=40 / rc=crf / mbtree=1 / crf=18.0 / qcomp=0.60 / qpmin=10 / qpmax=69 / qpstep=4 / ip_ratio=1.40 / aq=1:1.00
Language : Russian

Audio #1
ID : 2
Format : AC-3
Format/Info : Audio Coding 3
Mode extension : CM (complete main)
Codec ID : A_AC3
Duration : 1h 31mn
Bit rate mode : Constant
Bit rate : 640 Kbps
Channel(s) : 6 channels
Channel positions : Front: L C R, Side: L R, LFE
Sampling rate : 48.0 KHz
Bit depth : 16 bits
Compression mode : Lossy
Stream size : 421 MiB (9%)
Language : Russian

Audio #2
ID : 3
Format : AC-3
Format/Info : Audio Coding 3
Mode extension : CM (complete main)
Codec ID : A_AC3
Duration : 1h 31mn
Bit rate mode : Constant
Bit rate : 640 Kbps
Channel(s) : 6 channels
Channel positions : Front: L C R, Side: L R, LFE
Sampling rate : 48.0 KHz
Bit depth : 16 bits
Compression mode : Lossy
Stream size : 421 MiB (9%)
Language : Ukranian
Внимание! Для просмотра нужны анаглифные очки красно-синезеленые
загрузка...
Правила, инструкции, FAQ!!!
Торрент  Добавлен [02 ноя 2014, 09:55] Скачать торрент
Скачать торрент
[ Размер 12.13 КБ / Просмотров 28 ]

Статус
Проверен 
 
Размер  4.63 ГБ
Приватный: Нет (DHT включён)
.torrent скачан  0
Как залить торрент? | Как скачать Torrent? | Как смотреть и слушать онлайн?  


     Отправить личное сообщение
   
Страница 1 из 1
Показать сообщения за:  Поле сортировки  
Начать новую тему Ответить на тему

   Похожие торренты   Автор   Ответы   Просмотры   Последнее сообщение 
В этой теме нет новых непрочитанных сообщений. Скачать торрент Проверен Кунг-фу Панда 2 в 3Д / Kung Fu Panda 2 3D (Дженнифер Ю / Jennifer Yuh) [2011, Мультфильм, Боевик, Приключения, Комедия, Семейный BDrip, 1080p] Anaglyph Dubois/ Анаглиф Дюбуа

в форуме HD-Video в 3D, Размер: 4.63 ГБ, Здоровье: 100%

Anonymous

0
14|5

108
0

02 ноя 2014, 09:55

Anonymous Перейти к последнему сообщению

В этой теме нет новых непрочитанных сообщений. Скачать торрент Проверен Кунг-фу Панда в 3Д / Kung Fu Panda 3D (Марк Осборн, Джон Стивенсон / Mark Osborne, John Stevenson) [2008, Мультфильм, Боевик, Комедия, Приключения, Семейный, BDrip, 1080p] OverUnder / Вертикальная стереопара

в форуме HD-Video в 3D, Размер: 7.73 ГБ, Здоровье: 100%

Anonymous

0
18|6

121
1

02 ноя 2014, 09:56

Anonymous Перейти к последнему сообщению

В этой теме нет новых непрочитанных сообщений. Скачать торрент Проверен Кунг-фу Панда в 3Д / Kung Fu Panda 3D (Марк Осборн, Джон Стивенсон / Mark Osborne, John Stevenson) [2008, Мультфильм, боевик, комедия, приключения, BDremux, 1080p] BD3D

в форуме HD-Video в 3D, Размер: 27.27 ГБ, Здоровье: 100%

Anonymous

0
17|5

45
0

02 ноя 2014, 09:49

Anonymous Перейти к последнему сообщению

В этой теме нет новых непрочитанных сообщений. Скачать торрент Проверен Кунг-фу Панда в 3Д / Kung Fu Panda 3D (Марк Осборн / Mark Osborne, Джон Стивенсон / John Stevenson) [2008 г., мультфильм, боевик, комедия, Blu-Ray 1080p CEE] BD3D

в форуме 3D Мультфильмы, Размер: 35.53 ГБ, Здоровье: 100%

Anonymous

0
5|1

10
0

07 сен 2016, 18:06

Anonymous Перейти к последнему сообщению

В этой теме нет новых непрочитанных сообщений. Скачать торрент Проверен Кунг-фу Панда в 3Д / Kung Fu Panda 3D (Марк Осборн / Mark Osborne, Джон Стивенсон / John Stevenson) [2008, мультфильм, боевик, комедия, Blu-ray Disc (custom) 1080p] BD3D

в форуме 3D Мультфильмы, Размер: 33.65 ГБ, Здоровье: 100%

Anonymous

0
1|0

7
0

07 сен 2016, 18:06

Anonymous Перейти к последнему сообщению



Сейчас этот форум просматривают: нет зарегистрированных пользователей и гости: 1


Вы не можете начинать темы
Вы не можете отвечать на сообщения
Вы не можете редактировать свои сообщения
Вы не можете удалять свои сообщения
Вы не можете добавлять вложения

Перейти:  

!ВНИМАНИЕ!
 Ресурс не предоставляет электронные версии произведений, а занимается лишь коллекционированием и каталогизацией ссылок, присылаемых и публикуемых на форуме нашими читателями. Если вы являетесь правообладателем какого-либо представленного материала и не желаете чтобы ссылка на него находилась в нашем каталоге, свяжитесь с нами и мы незамедлительно удалим её. Файлы для обмена на трекере предоставлены пользователями сайта, и администрация не несёт ответственности за их содержание. Просьба не заливать файлы, защищенные авторскими правами, а также файлы нелегального содержания!