На всех торрентах на трекере установлена скидка на скачивание в размере 100 процентов(а).
 Возможность скачивания торрента НЕ зависит от ограничений при низком ратио, низком аплоаде, требуемом ратио или требуемом аплоаде.


Начать новую тему Ответить на тему
Статистика раздачи
Размер: 8.38 ГБ | Добавлен: 02 ноя 2014, 09:49 | Скачали: 0
Сидеров: 56  [0 байт/сек]    Личеров: 19  [0 байт/сек]
Пред. тема | След. тема 

Автор
Сообщение

СообщениеДобавлено: 02 ноя 2014, 09:49 

Легенды ночных стражей / Legend of the Guardians: The Owls of Ga’Hoole

Год выпуска: 2010
Страна: США, Австралия
Жанр: мультфильм, фэнтези, приключения
Продолжительность: 01:36:47

Перевод: Профессиональный (дублированный)
Русские субтитры: есть
Режиссер на русском: Зак Снайдер
Режиссер на английском: Zack Snyder
В ролях: Джим Стёрджесс, Райан Квантен, Джоэл Эдгертон, Хелен Миррен, Джеффри Раш, Эдриэнн ДеФариа, Эмили Барклай, Сэм Нил, Энтони ЛаПалья, Дэвид Уэнэм
Описание: Миром, в котором уже не осталось людей, правят совы... добрые... злые... как и всегда! В волшебном лесу - королевстве сов Тито - на Великом Дереве Га`Хуул, где разумные совы живут в гармонии, наступают мрачные времена. Королевство подвергается страшной опасности со стороны соседних жестоких правителей, и эта опасность грозит уничтожить привычное мироздание.

Семпл: http://multi-up.com/743103

Качество: BDrip
Контейнер: MKV
Формат 3D: Half OverUnder / Вертикальная анаморфная стереопара
Порядок ракурсов: левый ракурс первый
Видео: 1920x1080 at 23.976 fps, x264@L4.1 ~11114 kbps
Аудио #1: 48 kHz, AC3, 3/2 (L,C,R,l,r) + LFE ch, ~640.00 kbps [Rus]
Аудио #2: 48 kHz, AC3, 3/2 (L,C,R,l,r) + LFE ch, ~640.00 kbps [Eng]
Субтитры: Russian, English, French, Portugal, Spanish, Vietn
Доп. инфо: С одной дорогой можно записать на DVD9-болванку...


Общее
Уникальный идентификатор : 192017579436762955378063716284026237769 (0x90753D98867B3B72B2B8378F2E52B349)
Полное имя : Легенды ночных стражей (2010) BDRip 3D.mkv
Формат : Matroska
Версия формата : Version 2
Размер файла : 8,38 Гбайт
Продолжительность : 1 ч. 36 м.
Общий поток : 12,4 Мбит/сек
Название фильма : «On his way to finding a legend...he will become one.»
Дата кодирования : UTC 2012-08-06 22:07:46
Программа кодирования : mkvmerge v5.7.0 ('The Whirlwind') built on Jul 8 2012 20:08:51
Библиотека кодирования : libebml v1.2.3 + libmatroska v1.3.0

Видео
Идентификатор : 1
Формат : AVC
Формат/Информация : Advanced Video Codec
Профиль формата : High@L4.1
Параметр CABAC формата : Да
Параметр ReFrames формата : 4 кадра
Идентификатор кодека : V_MPEG4/ISO/AVC
Продолжительность : 1 ч. 36 м.
Битрейт : 11,1 Мбит/сек
Ширина : 1920 пикселей
Высота : 1080 пикселей
Соотношение сторон : 16:9
Частота кадров : 23,976 кадра/сек
Цветовое пространство : YUV
Субдискретизация насыщенности : 4:2:0
Битовая глубина : 8 бит
Тип развёртки : Прогрессивная
Бит/(Пиксели*Кадры) : 0.224
Размер потока : 7,35 Гбайт (88%)
Заголовок : Legend of the Guardians: The Owls of Ga’Hoole (2010) BDRip 3D
Библиотека кодирования : x264 core 125 r2208 d9d2288
Настройки программы : cabac=1 / ref=4 / deblock=1:-3:-3 / analyse=0x3:0x113 / me=umh / subme=9 / psy=1 / psy_rd=1.00:0.00 / mixed_ref=1 / me_range=64 / chroma_me=1 / trellis=2 / 8x8dct=1 / cqm=0 / deadzone=21,11 / fast_pskip=0 / chroma_qp_offset=-2 / threads=12 / lookahead_threads=2 / sliced_threads=0 / nr=0 / decimate=1 / interlaced=0 / bluray_compat=0 / constrained_intra=0 / bframes=5 / b_pyramid=2 / b_adapt=2 / b_bias=0 / direct=3 / weightb=1 / open_gop=0 / weightp=2 / keyint=250 / keyint_min=23 / scenecut=40 / intra_refresh=0 / rc_lookahead=40 / rc=2pass / mbtree=1 / bitrate=11114 / ratetol=1.0 / qcomp=0.60 / qpmin=10 / qpmax=51 / qpstep=4 / cplxblur=20.0 / qblur=0.5 / ip_ratio=1.40 / aq=1:1.00
Язык : English
Default : Да
Forced : Нет

Аудио #1
Идентификатор : 2
Формат : AC-3
Формат/Информация : Audio Coding 3
Расширение режима : CM (complete main)
Параметр Endianness формата : Big
Идентификатор кодека : A_AC3
Продолжительность : 1 ч. 36 м.
Вид битрейта : Постоянный
Битрейт : 640 Кбит/сек
Каналы : 6 каналов
Расположение каналов : Front: L C R, Side: L R, LFE
Частота : 48,0 КГц
Битовая глубина : 16 бит
Метод сжатия : С потерями
Размер потока : 443 Мбайт (5%)
Заголовок : [Blu-ray CEE] Dub - AC3 5.1 @ 640 kbps
Язык : Russian
Default : Да
Forced : Нет

Аудио #2
Идентификатор : 3
Формат : AC-3
Формат/Информация : Audio Coding 3
Расширение режима : CM (complete main)
Параметр Endianness формата : Big
Идентификатор кодека : A_AC3
Продолжительность : 1 ч. 36 м.
Вид битрейта : Постоянный
Битрейт : 640 Кбит/сек
Каналы : 6 каналов
Расположение каналов : Front: L C R, Side: L R, LFE
Частота : 48,0 КГц
Битовая глубина : 16 бит
Метод сжатия : С потерями
Размер потока : 443 Мбайт (5%)
Заголовок : AC3 5.1 @ 640 kbps
Язык : English
Default : Нет
Forced : Нет

Текст #1
Идентификатор : 4
Формат : UTF-8
Идентификатор кодека : S_TEXT/UTF8
Идентификатор кодека/Информация : UTF-8 Plain Text
Заголовок : [SRT/UTF8] Full
Язык : Russian
Default : Нет
Forced : Нет

Текст #2
Идентификатор : 5
Формат : UTF-8
Идентификатор кодека : S_TEXT/UTF8
Идентификатор кодека/Информация : UTF-8 Plain Text
Заголовок : [SRT/UTF8] Full
Язык : English
Default : Нет
Forced : Нет

Текст #3
Идентификатор : 6
Формат : UTF-8
Идентификатор кодека : S_TEXT/UTF8
Идентификатор кодека/Информация : UTF-8 Plain Text
Заголовок : [SRT/UTF8] Full
Язык : French
Default : Нет
Forced : Нет

Текст #4
Идентификатор : 7
Формат : UTF-8
Идентификатор кодека : S_TEXT/UTF8
Идентификатор кодека/Информация : UTF-8 Plain Text
Заголовок : [SRT/UTF8] Full
Язык : Portuguese
Default : Нет
Forced : Нет

Текст #5
Идентификатор : 8
Формат : UTF-8
Идентификатор кодека : S_TEXT/UTF8
Идентификатор кодека/Информация : UTF-8 Plain Text
Заголовок : [SRT/UTF8] Full
Язык : Spanish
Default : Нет
Forced : Нет

Текст #6
Идентификатор : 9
Формат : UTF-8
Идентификатор кодека : S_TEXT/UTF8
Идентификатор кодека/Информация : UTF-8 Plain Text
Заголовок : [SRT/UTF8] Full
Язык : Vietnamese
Default : Нет
Forced : Нет


загрузка...
Правила, инструкции, FAQ!!!
Торрент  Добавлен [02 ноя 2014, 09:49] Скачать торрент
Скачать торрент
[ Размер 21.57 КБ / Просмотров 22 ]

Статус
Проверен 
 
Размер  8.38 ГБ
Приватный: Нет (DHT включён)
.torrent скачан  0
Как залить торрент? | Как скачать Torrent? | Как смотреть и слушать онлайн?  


     Отправить личное сообщение
   
Страница 1 из 1
Показать сообщения за:  Поле сортировки  
Начать новую тему Ответить на тему

   Похожие торренты   Автор   Ответы   Просмотры   Последнее сообщение 
В этой теме нет новых непрочитанных сообщений. Скачать торрент Проверен Легенды ночных стражей 3Д / Legend of the Guardians: The Owls of Ga’Hoole 3D (Зак Снайдер / Zack Snyder) [2010, мультфильм, фэнтези, приключения, BDrip-AVC] Half OverUnder / Вертикальная анаморфная стереопара

в форуме 3D Мультфильмы, Размер: 8.7 ГБ, Здоровье: 0%

Anonymous

0
0|0

11
0

07 сен 2016, 18:05

Anonymous Перейти к последнему сообщению

В этой теме нет новых непрочитанных сообщений. Скачать торрент Проверен Легенды ночных стражей 3Д / Legend of the Guardians: The Owls of Ga’Hoole 3D (Зак Снайдер / Zack Snyder) [2010, мультфильм, фэнтези, приключения, BDrip, 1080p] OverUnder / Вертикальная стереопара

в форуме 3D Мультфильмы, Размер: 12.99 ГБ, Здоровье: 0%

Anonymous

0
0|0

7
0

07 сен 2016, 17:43

Anonymous Перейти к последнему сообщению

В этой теме нет новых непрочитанных сообщений. Скачать торрент Проверен Легенды ночных стражей 3Д / Legend of the Guardians: The Owls of Ga’Hoole 3D (Зак Снайдер / Zack Snyder) [2010, мультфильм, фэнтези, приключения, BDrip, 720p] OverUnder / Вертикальная стереопара

в форуме 3D Мультфильмы, Размер: 7.79 ГБ, Здоровье: 0%

Anonymous

0
0|0

8
0

07 сен 2016, 17:51

Anonymous Перейти к последнему сообщению

В этой теме нет новых непрочитанных сообщений. Скачать торрент Проверен Легенды ночных стражей в 3Д / Legend of the Guardians: The Owls of Ga’Hoole 3D (Зак Снайдер / Zack Snyder) [2010, Мультфильм, Фэнтези, Приключения, BDRip-AVC] Half SideBySide / Горизонтальная анаморфная стереопара

в форуме 3D Мультфильмы, Размер: 7.9 ГБ, Здоровье: 0%

Anonymous

0
0|0

5
0

07 сен 2016, 17:46

Anonymous Перейти к последнему сообщению

В этой теме нет новых непрочитанных сообщений. Скачать торрент Проверен Легенды ночных стражей 3Д / Legend of the Guardians: The Owls of Ga’Hoole 3D (Зак Снайдер / Zack Snyder) [2010, Мультфильм, Фэнтези, Приключения, HDrip] Half SideBySide / Горизонтальная анаморфная стереопара

в форуме 3D Мультфильмы, Размер: 2.97 ГБ, Здоровье: 0%

Anonymous

0
0|0

5
0

07 сен 2016, 18:15

Anonymous Перейти к последнему сообщению



Сейчас этот форум просматривают: нет зарегистрированных пользователей и гости: 1


Вы не можете начинать темы
Вы не можете отвечать на сообщения
Вы не можете редактировать свои сообщения
Вы не можете удалять свои сообщения
Вы не можете добавлять вложения

Перейти:  

!ВНИМАНИЕ!
 Ресурс не предоставляет электронные версии произведений, а занимается лишь коллекционированием и каталогизацией ссылок, присылаемых и публикуемых на форуме нашими читателями. Если вы являетесь правообладателем какого-либо представленного материала и не желаете чтобы ссылка на него находилась в нашем каталоге, свяжитесь с нами и мы незамедлительно удалим её. Файлы для обмена на трекере предоставлены пользователями сайта, и администрация не несёт ответственности за их содержание. Просьба не заливать файлы, защищенные авторскими правами, а также файлы нелегального содержания!