На всех торрентах на трекере установлена скидка на скачивание в размере 100 процентов(а).
 Возможность скачивания торрента НЕ зависит от ограничений при низком ратио, низком аплоаде, требуемом ратио или требуемом аплоаде.


Начать новую тему Ответить на тему
Статистика раздачи
Размер: 484.38 МБ | Добавлен: 02 ноя 2014, 09:48 | Скачали: 0
Сидеров: 20  [0 байт/сек]    Личеров: 7  [0 байт/сек]
Пред. тема | След. тема 

Автор
Сообщение

СообщениеДобавлено: 02 ноя 2014, 09:48 

Большой Бак / Big Buck Bunny

Год выпуска: 2008
Страна: Нидерланды
Жанр: комедия, мультфильм, короткометражка
Продолжительность: 00:10:36
Перевод: Не требуется
Русские субтитры: нет

Режиссер: Саша Гудегебуре / Sacha Goedegebure

Описание: Большой Бак только проснулся в своей кроличьей норе, но три грызуна - Гамера, Фрэнк и Ринки - уже начали его доставать. Когда Гамера убивает бабочку, Бак решает что пора действовать!

Сэмпл: http://dfiles.ru/files/wbwwrkhd1



Качество: WEB-DLRip
Контейнер: AVI
Формат 3D: Half OverUnder / Вертикальная анаморфная стереопара
Порядок ракурсов: левый ракурс первый
Видео кодек: xVid
Аудио кодек: AC3
Видео: 1152x648, 30 fps, 5 820 Kbps, 0.260 bit/pixel
Аудио:AC-3, 48.0 kHz, 6ch, 320 Kbps
General
Format : AVI
Format/Info : Audio Video Interleave
File size : 484 MiB
Duration : 10mn 34s
Overall bit rate : 6 403 Kbps
Movie name : Big Buck Bunny, Sunflower version
Director : Blender Foundation 2008, Janus Bager Kristensen 2013
Genre : Animation
Writing application : Lavf55.44.100
Comment : Creative Commons Attribution 3.0 - http://bbb3d.renderfarming.net

Video
ID : 0
Format : xvid
Codec ID : xvid
Duration : 10mn 34s
Bit rate : 5 820 Kbps
Width : 1 152 pixels
Height : 648 pixels
Display aspect ratio : 16:9
Frame rate : 30.000 fps
Bits/(Pixel*Frame) : 0.260
Stream size : 440 MiB (91%)

Audio
ID : 1
Format : AC-3
Format/Info : Audio Coding 3
Codec ID : 00001000-0000-0020-8000-00AA00389B71
Duration : 10mn 34s
Bit rate : 320 Kbps
Channel count : 6 channels
Channel positions : Front: L C R, Side: L R, LFE
Sampling rate : 48.0 KHz
Bit depth : 16 bits
Compression mode : Lossy
Stream size : 24.2 MiB (5%)



загрузка...
Правила, инструкции, FAQ!!!
Торрент  Добавлен [02 ноя 2014, 09:48] Скачать торрент
Скачать торрент
[ Размер 19.4 КБ / Просмотров 19 ]

Статус
Проверен 
 
Размер  484.38 МБ
Приватный: Нет (DHT включён)
.torrent скачан  0
Как залить торрент? | Как скачать Torrent? | Как смотреть и слушать онлайн?  


     Отправить личное сообщение
   
Страница 1 из 1
Показать сообщения за:  Поле сортировки  
Начать новую тему Ответить на тему

   Похожие торренты   Автор   Ответы   Просмотры   Последнее сообщение 
В этой теме нет новых непрочитанных сообщений. Скачать торрент Проверен Большой Бак в 3Д / Big Buck Bunny 3D (Саха Гудегебуре / Sacha Goedegebure) [2008, Мультфильм, Короткометражка, Комедия, BDrip-AVC] Half OverUnder / Вертикальная анаморфная стереопара

в форуме 3D Мультфильмы, Размер: 667.05 МБ, Здоровье: 0%

Anonymous

0
0|0

8
0

07 сен 2016, 17:54

Anonymous Перейти к последнему сообщению

В этой теме нет новых непрочитанных сообщений. Скачать торрент Проверен Большой Бак в 3Д / Big Buck Bunny 3D (Саха Гудегебуре / Sacha Goedegebure) [2008, Комедия, короткометражка, BDremux, 1080p] BD3D

в форуме 3D Мультфильмы, Размер: 2.32 ГБ, Здоровье: 0%

Anonymous

0
0|0

6
0

07 сен 2016, 17:33

Anonymous Перейти к последнему сообщению

В этой теме нет новых непрочитанных сообщений. Скачать торрент Проверен Щенок в 3Д / Puppy 3D (Yarrow Cheney, Bruno Dequier) [2013, Мультфильм, Короткометражка, Комедия, Семейный, BDrip-AVC] Half OverUnder / Вертикальная анаморфная стереопара

в форуме 3D Мультфильмы, Размер: 200.3 МБ, Здоровье: 0%

Anonymous

0
0|0

5
0

07 сен 2016, 17:54

Anonymous Перейти к последнему сообщению

В этой теме нет новых непрочитанных сообщений. Скачать торрент Проверен Меню в 3Д / Feast 3D (Патрик Осборн / Patrick Osborne) [2014, Мультфильм, Короткометражка, Мелодрама, Комедия, Семейный, BDrip-AVC] Half OverUnder / Вертикальная анаморфная стереопара

в форуме 3D Мультфильмы, Размер: 548.14 МБ, Здоровье: 0%

Anonymous

0
0|0

7
0

07 сен 2016, 17:54

Anonymous Перейти к последнему сообщению

В этой теме нет новых непрочитанных сообщений. Скачать торрент Проверен Бумажный роман в 3Д / Paperman 3D (Джон Карс / John Kahrs) [2012, мультфильм, короткометражка, мелодрама, комедия, BDrip-AVC] Half OverUnder / Вертикальная анаморфная стереопара

в форуме HD-Video в 3D, Размер: 421.12 МБ, Здоровье: 100%

Anonymous

0
27|8

67
1

02 ноя 2014, 09:49

Anonymous Перейти к последнему сообщению



Сейчас этот форум просматривают: нет зарегистрированных пользователей и гости: 1


Вы не можете начинать темы
Вы не можете отвечать на сообщения
Вы не можете редактировать свои сообщения
Вы не можете удалять свои сообщения
Вы не можете добавлять вложения

Перейти:  

!ВНИМАНИЕ!
 Ресурс не предоставляет электронные версии произведений, а занимается лишь коллекционированием и каталогизацией ссылок, присылаемых и публикуемых на форуме нашими читателями. Если вы являетесь правообладателем какого-либо представленного материала и не желаете чтобы ссылка на него находилась в нашем каталоге, свяжитесь с нами и мы незамедлительно удалим её. Файлы для обмена на трекере предоставлены пользователями сайта, и администрация не несёт ответственности за их содержание. Просьба не заливать файлы, защищенные авторскими правами, а также файлы нелегального содержания!