На всех торрентах на трекере установлена скидка на скачивание в размере 100 процентов(а).
 Возможность скачивания торрента НЕ зависит от ограничений при низком ратио, низком аплоаде, требуемом ратио или требуемом аплоаде.


Начать новую тему Ответить на тему
Статистика раздачи
Размер: 10.59 ГБ | Добавлен: 12 июл 2014, 11:23 | Скачали: 0
Сидеров: 2  [0 байт/сек]    Личеров: 0  [0 байт/сек]
Пред. тема | След. тема 

Автор
Сообщение

СообщениеДобавлено: 12 июл 2014, 11:23 

Врата дракона / Long men fei jia / The Flying Swords of Dragon Gate (2011) BDRip [1080p] 3D [Горизонтальная анаморфная стереопара]

Год выпуска: 2011
Производство: Китай / Beijing Liangzi Group, Beijing Poly-bona Film Publishing Co. Ltd., Bona Entertainment, Bona International Film Group, China Film Co-Production Corporation, China Film Co., Film Workshop Ltd., Shanda Pictures, Shineshow, SMG Pictures
Жанр: Боевик, Приключения
Перевод: Дублированный, Любительский двухголосый, Любительский одноголосый
Субтитры: Отсутствуют

Дата мировой премьеры: 15 декабря 2011
Дата российской премьеры: 21 февраля 2013, «Каскад»
Дата выхода DVD релиза: 4 апреля 2013, «Флагман-Трейд»
Дата выхода Blu-ray релиза: 4 апреля 2013, «Флагман-Трейд»

Режиссер: Цуй Харк
Продюсер: Нансун Ши, Цуй Харк, Джеффри Чан
Актеры: Джет Ли, Чжоу Сюнь, Чэнь Кунь, Луньмэй Квай, Юйчунь Ли, Мевис Фэн, Фан Сю-Вонг, Цзя-Хуэй Лю, Цзянькуй Сунь, Чиэнь Шэн

Описание фильма:
Согласно древней легенде каждые 60 лет сильнейшая песчаная буря смывает песок, под которым спрятан Золотой город, полный сокровищ. В ожидании бури в гостинице Врата Дракона собирается разномастная компания охотников за сокровищами Золотого города. Тут и император одной из китайских провинций и тайный министр другой провинции и две банды наемных убийц. Все они жаждут завладеть сокровищами, а ситуация усложняется тем, что кое у кого из постояльцев отеля есть личные счеты друг к другу.



Автор рипа: marik05

Продолжительность: 02:02:23
Качество видео: BDRip [Profile LQ]

Видео: MPEG-4 AVC/H.264, 1920x1080, ~11,0 Мбит/сек, 23,976 кадра/сек, 0.221 Пиксели/Кадры
Аудио #1: AC-3, 448 Кбит/сек, 6 каналов, 48,0 КГц, 16 бит (Русский - Дублированный)
Аудио #2: AC-3, 256 Кбит/сек, 2 канала, 48,0 КГц, 16 бит (Русский - Любительский двухголосый ''Чип и Дейл'')
Аудио #3: AC-3, 448 Кбит/сек, 2 канала, 48,0 КГц, 16 бит (Русский - Любительский одноголосый ''Одинокий монах'')
Сэмпл: Скачать
Общее
Уникальный идентификатор : 245537620594248542290281188516773506148 (0xB8B8D35A5D5B698CA7BB550B973C2C64)
Полное имя : Flying Swords Of Dragon Gate.2011.1080p.3D.mkv
Формат : Matroska
Версия формата : Version 2
Размер файла : 10,6 Гбайт
Продолжительность : 2 ч. 2 м.
Общий поток : 12,4 Мбит/сек
Название фильма : The Child's Eye (3D) 2010 (ash61)
Дата кодирования : UTC 2014-07-11 03:56:56
Программа кодирования : mkvmerge v3.4.0 ('Rapunzel') сборка от May 15 2010 09:38:20
Библиотека кодирования : libebml v0.8.0 + libmatroska v0.9.0

Видео
Идентификатор : 1
Формат : AVC
Формат/Информация : Advanced Video Codec
Профиль формата :
Параметр CABAC формата : Да
Параметр ReFrames формата : 4 кадра
Идентификатор кодека : V_MPEG4/ISO/AVC
Продолжительность : 2 ч. 2 м.
Битрейт : 11,0 Мбит/сек
Ширина : 1920 пикселей
Высота : 1080 пикселей
Соотношение сторон : 16:9
Режим частоты кадров : Постоянный
Частота кадров : 23,976 кадра/сек
Цветовое пространство : YUV
Субдискретизация насыщенности : 4:2:0
Битовая глубина : 8 бит
Тип развёртки : Прогрессивная
Бит/(Пиксели*Кадры) : 0.221
Размер потока : 9,40 Гбайт (89%)
Библиотека кодирования : x264 core 120 r2120 0c7dab9
Настройки программы : cabac=1 / ref=4 / deblock=1:-3:-3 / analyse=0x3:0x113 / me=umh / subme=9 / psy=1 / psy_rd=1.00:0.15 / mixed_ref=1 / me_range=16 / chroma_me=1 / trellis=1 / 8x8dct=1 / cqm=0 / deadzone=21,11 / fast_pskip=1 / chroma_qp_offset=-3 / threads=18 / sliced_threads=0 / nr=0 / decimate=1 / interlaced=0 / bluray_compat=0 / constrained_intra=0 / bframes=3 / b_pyramid=2 / b_adapt=1 / b_bias=0 / direct=3 / weightb=1 / open_gop=0 / weightp=2 / keyint=250 / keyint_min=23 / scenecut=40 / intra_refresh=0 / rc_lookahead=40 / rc=crf / mbtree=1 / crf=17.0 / qcomp=0.60 / qpmin=10 / qpmax=69 / qpstep=4 / ip_ratio=1.40 / aq=1:1.00
Язык : English
Default : Да
Forced : Нет

Аудио #1
Идентификатор : 2
Формат : AC-3
Формат/Информация : Audio Coding 3
Расширение режима : CM (complete main)
Параметр Endianness формата : Big
Идентификатор кодека : A_AC3
Продолжительность : 2 ч. 2 м.
Вид битрейта : Постоянный
Битрейт : 448 Кбит/сек
Каналы : 6 каналов
Расположение каналов : Front: L C R, Side: L R, LFE
Частота : 48,0 КГц
Битовая глубина : 16 бит
Метод сжатия : С потерями
Размер потока : 392 Мбайт (4%)
Заголовок : AC3 / 5.1 ch / 448 kbps / Дубляж (BD CEE)
Язык : Russian
Default : Да
Forced : Нет

Аудио #2
Идентификатор : 3
Формат : AC-3
Формат/Информация : Audio Coding 3
Расширение режима : CM (complete main)
Параметр Endianness формата : Big
Идентификатор кодека : A_AC3
Продолжительность : 2 ч. 2 м.
Вид битрейта : Постоянный
Битрейт : 256 Кбит/сек
Каналы : 2 канала
Расположение каналов : Front: L R
Частота : 48,0 КГц
Битовая глубина : 16 бит
Метод сжатия : С потерями
Размер потока : 224 Мбайт (2%)
Заголовок : DVO [Чип и Дейл]двухголосный
Язык : Russian
Default : Нет
Forced : Нет

Аудио #3
Идентификатор : 4
Формат : AC-3
Формат/Информация : Audio Coding 3
Расширение режима : CM (complete main)
Параметр Endianness формата : Big
Идентификатор кодека : A_AC3
Продолжительность : 2 ч. 2 м.
Вид битрейта : Постоянный
Битрейт : 448 Кбит/сек
Каналы : 2 канала
Расположение каналов : Front: L R
Частота : 48,0 КГц
Битовая глубина : 16 бит
Метод сжатия : С потерями
Размер потока : 392 Мбайт (4%)
Заголовок : VO Монах (одноголосый)
Язык : Russian
Default : Нет
Forced : Нет

Меню
00:00:00.000 : en:00:00:00.000
00:09:24.063 : en:00:09:24.063
00:20:16.841 : en:00:20:16.841
00:28:38.675 : en:00:28:38.675
00:41:10.259 : en:00:41:10.259
00:50:54.009 : en:00:50:54.009
01:02:39.547 : en:01:02:39.547
01:11:18.441 : en:01:11:18.441
01:20:15.728 : en:01:20:15.728
01:31:08.963 : en:01:31:08.963
01:44:58.751 : en:01:44:58.751
01:53:41.023 : en:01:53:41.023
Скриншоты:

загрузка...
Правила, инструкции, FAQ!!!
Торрент  Добавлен [12 июл 2014, 11:23] Скачать торрент
Скачать торрент
[ Размер 53.83 КБ / Просмотров 14 ]

Статус
Проверен 
 
Размер  10.59 ГБ
Приватный: Нет (DHT включён)
.torrent скачан  0
Как залить торрент? | Как скачать Torrent? | Как смотреть и слушать онлайн?  


     Отправить личное сообщение
   
Страница 1 из 1
Показать сообщения за:  Поле сортировки  
Начать новую тему Ответить на тему

   Похожие торренты   Автор   Ответы   Просмотры   Последнее сообщение 
В этой теме нет новых непрочитанных сообщений. Скачать торрент Проверен Врата дракона / Long men fei jia / The Flying Swords of Dragon Gate (2011) BDRip [1080p] 3D [Вертикальная анаморфная стереопара]

в форуме HD-Video в 3D, Размер: 11.67 ГБ, Здоровье: ???%

Anonymous

0
0|1

63
0

12 июл 2014, 11:20

Anonymous Перейти к последнему сообщению

В этой теме нет новых непрочитанных сообщений. Скачать торрент Проверен Летающие мечи врат дракона 3Д / Flying Swords of Dragon Gate 3D (Харк Цуй / Hark Tsui) [2011, фэнтези, боевик, приключения, BDrip-AVC] IMAX, Half SideBySide / Горизонтальная анаморфная стереопара

в форуме HD-Video в 3D, Размер: 10.21 ГБ, Здоровье: 100%

Anonymous

0
46|15

51
0

11 июл 2014, 12:17

Anonymous Перейти к последнему сообщению

В этой теме нет новых непрочитанных сообщений. Скачать торрент Проверен Как приручить дракона 3Д / How to Train Your Dragon 3D (Дин ДеБлуа, Крис Сандерс / Dean DeBlois, Chris Sanders) [2010 г., комедийные скандинавско-фентезийные приключения, BDRip-AVC] Half SideBySide / Горизонтальная анаморфная стереопара

в форуме 3D Мультфильмы, Размер: 6.42 ГБ, Здоровье: 100%

Anonymous

0
32|11

18
0

07 сен 2016, 18:23

Anonymous Перейти к последнему сообщению

В этой теме нет новых непрочитанных сообщений. Скачать торрент Проверен Безумные мелодии 3Д / Looney Tunes 3D (Мэттью О’Каллаган / Matthew OCallaghan) [2010, Короткометражная анимация, комедия, BDrip-AVC] Half SideBySide / Горизонтальная анаморфная стереопара, Coyote Falls, Fur of Flying, Rabid Rider

в форуме 3D Мультфильмы, Размер: 384.46 МБ, Здоровье: 0%

Anonymous

0
0|0

8
0

07 сен 2016, 17:38

Anonymous Перейти к последнему сообщению

В этой теме нет новых непрочитанных сообщений. Скачать торрент Хоббит: Пустошь Смауга / The Hobbit: The Desolation of Smaug (2013) BDRip [1080p] 3D [Горизонтальная анаморфная стереопара] [Line]

в форуме HD-Video в 3D, Размер: 15.98 ГБ, Здоровье: 100%

Anonymous

0
38|2

84
1

22 мар 2014, 09:01

Anonymous Перейти к последнему сообщению



Сейчас этот форум просматривают: нет зарегистрированных пользователей и гости: 1


Вы не можете начинать темы
Вы не можете отвечать на сообщения
Вы не можете редактировать свои сообщения
Вы не можете удалять свои сообщения
Вы не можете добавлять вложения

Перейти:  

!ВНИМАНИЕ!
 Ресурс не предоставляет электронные версии произведений, а занимается лишь коллекционированием и каталогизацией ссылок, присылаемых и публикуемых на форуме нашими читателями. Если вы являетесь правообладателем какого-либо представленного материала и не желаете чтобы ссылка на него находилась в нашем каталоге, свяжитесь с нами и мы незамедлительно удалим её. Файлы для обмена на трекере предоставлены пользователями сайта, и администрация не несёт ответственности за их содержание. Просьба не заливать файлы, защищенные авторскими правами, а также файлы нелегального содержания!