На всех торрентах на трекере установлена скидка на скачивание в размере 100 процентов(а).
 Возможность скачивания торрента НЕ зависит от ограничений при низком ратио, низком аплоаде, требуемом ратио или требуемом аплоаде.


Начать новую тему Ответить на тему
Статистика раздачи
Размер: 11.67 ГБ | Добавлен: 12 июл 2014, 11:20 | Скачали: 0
Сидеров: 0  [0 байт/сек]    Личеров: 1  [0 байт/сек]
Пред. тема | След. тема 

Автор
Сообщение

СообщениеДобавлено: 12 июл 2014, 11:20 

Врата дракона / Long men fei jia / The Flying Swords of Dragon Gate (2011) BDRip [1080p] 3D [Вертикальная анаморфная стереопара]

Год выпуска: 2011
Производство: Китай / Beijing Liangzi Group, Beijing Poly-bona Film Publishing Co. Ltd., Bona Entertainment, Bona International Film Group, China Film Co-Production Corporation, China Film Co., Film Workshop Ltd., Shanda Pictures, Shineshow, SMG Pictures
Жанр: Боевик, Приключения
Перевод: Дублированный, Любительский двухголосый, Любительский одноголосый
Субтитры: Отсутствуют

Дата мировой премьеры: 15 декабря 2011
Дата российской премьеры: 21 февраля 2013, «Каскад»
Дата выхода DVD релиза: 4 апреля 2013, «Флагман-Трейд»
Дата выхода Blu-ray релиза: 4 апреля 2013, «Флагман-Трейд»

Режиссер: Цуй Харк
Продюсер: Нансун Ши, Цуй Харк, Джеффри Чан
Актеры: Джет Ли, Чжоу Сюнь, Чэнь Кунь, Луньмэй Квай, Юйчунь Ли, Мевис Фэн, Фан Сю-Вонг, Цзя-Хуэй Лю, Цзянькуй Сунь, Чиэнь Шэн

Описание фильма:
Согласно древней легенде каждые 60 лет сильнейшая песчаная буря смывает песок, под которым спрятан Золотой город, полный сокровищ. В ожидании бури в гостинице Врата Дракона собирается разномастная компания охотников за сокровищами Золотого города. Тут и император одной из китайских провинций и тайный министр другой провинции и две банды наемных убийц. Все они жаждут завладеть сокровищами, а ситуация усложняется тем, что кое у кого из постояльцев отеля есть личные счеты друг к другу.



Автор рипа: marik05

Продолжительность: 02:02:23
Качество видео: BDRip

Видео: MPEG-4 AVC/H.264, 1920x1080, ~12,5 Мбит/сек, 23,976 кадра/сек, 0.251 Пиксели/Кадры
Аудио #1: AC-3, 448 Кбит/сек, 6 каналов, 48,0 КГц, 16 бит (Русский - Дублированный)
Аудио #2: AC-3, 256 Кбит/сек, 2 канала, 48,0 КГц, 16 бит (Русский - Любительский двухголосый ''Чип и Дейл'')
Аудио #3: AC-3, 448 Кбит/сек, 2 канала, 48,0 КГц, 16 бит (Русский - Любительский одноголосый ''Одинокий монах'')
Сэмпл: Скачать
Общее
Уникальный идентификатор : 236368094836061021534067777987669415309 (0xB1D2D6D41FB517E6A0FBA05B6958558D)
Полное имя : Flying Swords of Dragon Gate.2011.mkv
Формат : Matroska
Версия формата : Version 4 / Version 2
Размер файла : 11,7 Гбайт
Продолжительность : 2 ч. 2 м.
Общий поток : 13,6 Мбит/сек
Название фильма : Flying.Swords.of.Dragon.Gate 3D (2011) 3D-RuGroup (m@rik05)
Дата кодирования : UTC 2013-04-17 19:28:59
Программа кодирования : mkvmerge v6.1.0 ('Old Devil') built on Mar 2 2013 14:32:37
Библиотека кодирования : libebml v1.3.0 + libmatroska v1.4.0

Видео
Идентификатор : 1
Формат : AVC
Формат/Информация : Advanced Video Codec
Профиль формата :
Параметр CABAC формата : Да
Параметр ReFrames формата : 4 кадра
Идентификатор кодека : V_MPEG4/ISO/AVC
Продолжительность : 2 ч. 2 м.
Битрейт : 12,5 Мбит/сек
Ширина : 1920 пикселей
Высота : 1080 пикселей
Соотношение сторон : 16:9
Режим частоты кадров : Постоянный
Частота кадров : 23,976 кадра/сек
Цветовое пространство : YUV
Субдискретизация насыщенности : 4:2:0
Битовая глубина : 8 бит
Тип развёртки : Прогрессивная
Бит/(Пиксели*Кадры) : 0.251
Размер потока : 10,5 Гбайт (90%)
Заголовок : BDrip (by m@rik05)
Библиотека кодирования : x264 core 120 r2164 da19765
Настройки программы : cabac=1 / ref=4 / deblock=1:-3:-3 / analyse=0x3:0x113 / me=tesa / subme=11 / psy=1 / psy_rd=0.90:0.15 / mixed_ref=1 / me_range=48 / chroma_me=1 / trellis=2 / 8x8dct=1 / cqm=0 / deadzone=21,11 / fast_pskip=0 / chroma_qp_offset=-3 / threads=12 / sliced_threads=0 / nr=0 / decimate=0 / interlaced=0 / bluray_compat=0 / constrained_intra=0 / bframes=7 / b_pyramid=2 / b_adapt=2 / b_bias=0 / direct=3 / weightb=1 / open_gop=0 / weightp=2 / keyint=250 / keyint_min=23 / scenecut=40 / intra_refresh=0 / rc_lookahead=120 / rc=2pass / mbtree=1 / bitrate=12500 / ratetol=1.0 / qcomp=0.70 / qpmin=0 / qpmax=69 / qpstep=4 / cplxblur=20.0 / qblur=0.5 / ip_ratio=1.40 / aq=2:0.80
Язык : Chinese
Default : Нет
Forced : Нет

Аудио #1
Идентификатор : 2
Формат : AC-3
Формат/Информация : Audio Coding 3
Расширение режима : CM (complete main)
Параметр Endianness формата : Big
Идентификатор кодека : A_AC3
Продолжительность : 2 ч. 2 м.
Вид битрейта : Постоянный
Битрейт : 448 Кбит/сек
Каналы : 6 каналов
Расположение каналов : Front: L C R, Side: L R, LFE
Частота : 48,0 КГц
Битовая глубина : 16 бит
Метод сжатия : С потерями
Задержка видео : 1 с. 925 мс.
Размер потока : 392 Мбайт (3%)
Заголовок : AC3 / 5.1 ch / 448 kbps / Дубляж (BD CEE)
Язык : Russian
Default : Да
Forced : Нет

Аудио #2
Идентификатор : 3
Формат : AC-3
Формат/Информация : Audio Coding 3
Расширение режима : CM (complete main)
Параметр Endianness формата : Big
Идентификатор кодека : A_AC3
Продолжительность : 2 ч. 2 м.
Вид битрейта : Постоянный
Битрейт : 256 Кбит/сек
Каналы : 2 канала
Расположение каналов : Front: L R
Частота : 48,0 КГц
Битовая глубина : 16 бит
Метод сжатия : С потерями
Размер потока : 224 Мбайт (2%)
Заголовок : двуголосый (любительский) Чип и Дейл
Язык : Russian
Default : Нет
Forced : Нет

Аудио #3
Идентификатор : 4
Формат : AC-3
Формат/Информация : Audio Coding 3
Расширение режима : CM (complete main)
Параметр Endianness формата : Big
Идентификатор кодека : A_AC3
Продолжительность : 2 ч. 2 м.
Вид битрейта : Постоянный
Битрейт : 448 Кбит/сек
Каналы : 2 канала
Расположение каналов : Front: L R
Частота : 48,0 КГц
Битовая глубина : 16 бит
Метод сжатия : С потерями
Задержка видео : 16 мс.
Размер потока : 392 Мбайт (3%)
Заголовок : одноголосый (авторский)одинокий монах
Язык : Russian
Default : Нет
Forced : Нет

Меню
00:00:00.000 : en:00:00:00.000
00:09:23.480 : en:00:09:23.480
00:20:15.631 : en:00:20:15.631
00:28:36.965 : en:00:28:36.965
00:41:07.799 : en:00:41:07.799
00:50:50.965 : en:00:50:50.965
01:02:35.794 : en:01:02:35.794
01:11:14.187 : en:01:11:14.187
01:20:10.931 : en:01:20:10.931
01:31:03.500 : en:01:31:03.500
01:44:52.453 : en:01:44:52.453
01:53:34.224 : en:01:53:34.224
Скриншоты:

загрузка...
Правила, инструкции, FAQ!!!
Торрент  Добавлен [12 июл 2014, 11:20] Скачать торрент
Скачать торрент
[ Размер 59.18 КБ / Просмотров 24 ]

Статус
Проверен 
 
Размер  11.67 ГБ
Приватный: Нет (DHT включён)
.torrent скачан  0
Как залить торрент? | Как скачать Torrent? | Как смотреть и слушать онлайн?  


     Отправить личное сообщение
   
Страница 1 из 1
Показать сообщения за:  Поле сортировки  
Начать новую тему Ответить на тему

   Похожие торренты   Автор   Ответы   Просмотры   Последнее сообщение 
В этой теме нет новых непрочитанных сообщений. Скачать торрент Проверен Врата дракона / Long men fei jia / The Flying Swords of Dragon Gate (2011) BDRip [1080p] 3D [Горизонтальная анаморфная стереопара]

в форуме HD-Video в 3D, Размер: 10.59 ГБ, Здоровье: 100%

Anonymous

0
2|0

59
0

12 июл 2014, 11:23

Anonymous Перейти к последнему сообщению

В этой теме нет новых непрочитанных сообщений. Скачать торрент Проверен Летающие мечи врат дракона 3Д / Flying Swords of Dragon Gate 3D (Харк Цуй / Hark Tsui) [2011, фэнтези, боевик, приключения, BDrip-AVC] IMAX, Half SideBySide / Горизонтальная анаморфная стереопара

в форуме HD-Video в 3D, Размер: 10.21 ГБ, Здоровье: 100%

Anonymous

0
46|15

50
0

11 июл 2014, 12:17

Anonymous Перейти к последнему сообщению

В этой теме нет новых непрочитанных сообщений. Скачать торрент Проверен Гнездо дракона в 3Д / Dragon Nest: Warriors' Dawn 3D (Юэфэн Сонг / Yuefeng Song) [2014, Мультфильм, Фэнтези, Приключения, Семейный, BDrip, 1080p] OverUnder / Вертикальная стереопара

в форуме 3D Мультфильмы, Размер: 11.05 ГБ, Здоровье: 0%

Anonymous

0
0|0

5
0

07 сен 2016, 18:01

Anonymous Перейти к последнему сообщению

В этой теме нет новых непрочитанных сообщений. Скачать торрент Проверен Как приручить дракона 3Д / How to Train Your Dragon 3D (Дин ДеБлуа, Крис Сандерс / Dean DeBlois, Chris Sanders) [2010 г., комедийные скандинавско-фентезийные приключения, BDRip 1080p] OverUnder / Вертикальная стереопара

в форуме 3D Мультфильмы, Размер: 11.17 ГБ, Здоровье: 0%

Anonymous

0
0|0

4
0

07 сен 2016, 18:09

Anonymous Перейти к последнему сообщению

В этой теме нет новых непрочитанных сообщений. Скачать торрент Проверен Летающая машина (Волшебная страна) в 3Д / The Flying Machine 3D (М. Клэпп, Д. Кобеля, Дж. Линдси / M. Clapp, D. Kobiela, G. Lindsey) [2011, Мультфильм, Музыкальный, Приключения, Семейный, BDrip-AVC] Half OverUnder / Вертикальная анаморфная стереопара

в форуме HD-Video в 3D, Размер: 7.85 ГБ, Здоровье: 100%

Anonymous

0
30|10

33
0

11 июл 2014, 10:19

Anonymous Перейти к последнему сообщению



Сейчас этот форум просматривают: нет зарегистрированных пользователей и гости: 1


Вы не можете начинать темы
Вы не можете отвечать на сообщения
Вы не можете редактировать свои сообщения
Вы не можете удалять свои сообщения
Вы не можете добавлять вложения

Перейти:  

!ВНИМАНИЕ!
 Ресурс не предоставляет электронные версии произведений, а занимается лишь коллекционированием и каталогизацией ссылок, присылаемых и публикуемых на форуме нашими читателями. Если вы являетесь правообладателем какого-либо представленного материала и не желаете чтобы ссылка на него находилась в нашем каталоге, свяжитесь с нами и мы незамедлительно удалим её. Файлы для обмена на трекере предоставлены пользователями сайта, и администрация не несёт ответственности за их содержание. Просьба не заливать файлы, защищенные авторскими правами, а также файлы нелегального содержания!