На всех торрентах на трекере установлена скидка на скачивание в размере 100 процентов(а).
 Возможность скачивания торрента НЕ зависит от ограничений при низком ратио, низком аплоаде, требуемом ратио или требуемом аплоаде.


Начать новую тему Ответить на тему
Статистика раздачи
Размер: 9.1 ГБ | Добавлен: 11 июл 2014, 10:23 | Скачали: 0
Сидеров: 12  [0 байт/сек]    Личеров: 4  [0 байт/сек]
Пред. тема | След. тема 

Автор
Сообщение

СообщениеДобавлено: 11 июл 2014, 10:23 

Уличные танцы 2 / Street Dance 2

«В два раза больше энергии и страсти»

Год выпуска: 2012
Страна: Германия , Великобритания
Жанр: мелодрама, музыка
Продолжительность: 01:24:55

Перевод: Профессиональный (дублированный) лицензия
Русские субтитры: нет
Режиссер на русском: Макс Джива / Дания Пасквини
Режиссер на английском: Max Giwa/ Dania Pasquini
В ролях: София Бутелла, Джордж Сэмпсон, Том Конти, Фальк Хеншел, Стефани Нгуйен, Элла Рэгг, Джоанна Джеффрис, Джеймс Майкл Ранкин, Ли Крэвен, Элизабетта Ди Карло

Описание: Уличный танцор Эш жаждет реванша за проигрыш на конкурсе Streetdance, и хочет собрать команду, которой не будет равных. В поисках, которые забрасывают его в самые разные уголки мира, Эш встречает девушку Еву, танцующую сальсу, и влюбляется в нее. В Еве он видит свое счастье, свой собственный танец, свою победу… Но завоевать сердце этой девушки не так просто.
Свобода самовыражения и мастерство импровизации, страсть сальсы и дерзость ринга — все это танцы, танцы, танцы — в школах, в клубах, на улицах Рима, Парижа, Лондона, Нью-Йорка.





Дополнительная информация по релизу: проверено на телевизоре LG 42 LW650S
Качество: BDrip
Контейнер: MKV
Формат 3D: Half OverUnder / Вертикальная анаморфная стереопара
Порядок ракурсов: левый ракурс первый
Видео кодек: x264
Аудио кодек: AC3
Видео: AVC / 1920х1080p / 23,976 fps / 13,8 Mbps
Аудио 1: Русский / AC3 / 48 KHz / 5.1 ch / 640 Kbps / Dub
Аудио 2: Английский / AC3 / 48 KHz / 5.1 ch / 640 Kbps (оригинал)
Субтитры: нет
Общее
Уникальный идентификатор : 191969656818278395122522623553696787705 (0x906C02D40ACA0753A24227FED1E16CF9)
Полное имя : E:\кино\Streetdance.2.2012.3D.HalfOU.Rus.ENG.AC3.1080p.x264(m@rik05).mkv
Формат : Matroska
Версия формата : Version 2
Размер файла : 9,10 Гбайт
Продолжительность : 1 ч. 24 м.
Общий поток : 15,3 Мбит/сек
Название фильма : Streetdance.2.2012.3D.HalfOU(m@rik05)
Дата кодирования : UTC 2012-07-28 15:16:20
Программа кодирования : mkvmerge v3.4.0 ('Rapunzel') сборка от May 15 2010 09:38:20
Библиотека кодирования : libebml v0.8.0 + libmatroska v0.9.0

Видео
Идентификатор : 1
Формат : AVC
Формат/Информация : Advanced Video Codec
Профиль формата : High@L4.1
Параметр CABAC формата : Да
Параметр ReFrames формата : 4 кадра
Идентификатор кодека : V_MPEG4/ISO/AVC
Продолжительность : 1 ч. 24 м.
Битрейт : 13,8 Мбит/сек
Ширина : 1920 пикселей
Высота : 1080 пикселей
Соотношение сторон : 16:9
Частота кадров : 23,976 кадра/сек
Цветовое пространство : YUV
Субдискретизация насыщенности : 4:2:0
Битовая глубина : 8 бит
Тип развёртки : Прогрессивная
Бит/(Пиксели*Кадры) : 0.277
Размер потока : 8,16 Гбайт (90%)
Библиотека кодирования : x264 core 120 r2164 da19765
Настройки программы : cabac=1 / ref=4 / deblock=1:-3:-3 / analyse=0x3:0x133 / me=umh / subme=9 / psy=1 / psy_rd=1.00:0.15 / mixed_ref=1 / me_range=16 / chroma_me=1 / trellis=2 / 8x8dct=1 / cqm=0 / deadzone=21,11 / fast_pskip=1 / chroma_qp_offset=-3 / threads=6 / sliced_threads=0 / nr=0 / decimate=1 / interlaced=0 / bluray_compat=0 / constrained_intra=0 / bframes=6 / b_pyramid=2 / b_adapt=2 / b_bias=0 / direct=3 / weightb=1 / open_gop=0 / weightp=2 / keyint=250 / keyint_min=23 / scenecut=40 / intra_refresh=0 / rc_lookahead=60 / rc=crf / mbtree=1 / crf=18.0 / qcomp=0.70 / qpmin=0 / qpmax=69 / qpstep=4 / vbv_maxrate=40000 / vbv_bufsize=40000 / crf_max=0.0 / nal_hrd=none / ip_ratio=1.40 / aq=1:0.80
Default : Да
Forced : Нет

Аудио #1
Идентификатор : 2
Формат : AC-3
Формат/Информация : Audio Coding 3
Расширение режима : CM (complete main)
Параметр Endianness формата : Big
Идентификатор кодека : A_AC3
Продолжительность : 1 ч. 24 м.
Вид битрейта : Постоянный
Битрейт : 640 Кбит/сек
Каналы : 6 каналов
Расположение каналов : Front: L C R, Side: L R, LFE
Частота : 48,0 КГц
Битовая глубина : 16 бит
Метод сжатия : С потерями
Размер потока : 389 Мбайт (4%)
Заголовок : Dub
Язык : Russian
Default : Да
Forced : Да

Аудио #2
Идентификатор : 3
Формат : AC-3
Формат/Информация : Audio Coding 3
Расширение режима : CM (complete main)
Параметр Endianness формата : Big
Идентификатор кодека : A_AC3
Продолжительность : 1 ч. 24 м.
Вид битрейта : Постоянный
Битрейт : 640 Кбит/сек
Каналы : 6 каналов
Расположение каналов : Front: L C R, Side: L R, LFE
Частота : 48,0 КГц
Битовая глубина : 16 бит
Метод сжатия : С потерями
Размер потока : 389 Мбайт (4%)
Заголовок : Original
Язык : English
Default : Нет
Forced : Нет

Меню
00:00:00.000 : en:00:00:00.000
00:10:30.421 : en:00:10:30.421
00:16:56.974 : en:00:16:56.974
00:22:44.989 : en:00:22:44.989
00:29:29.810 : en:00:29:29.810
00:38:26.262 : en:00:38:26.262
00:43:40.743 : en:00:43:40.743
00:49:42.021 : en:00:49:42.021
00:57:12.179 : en:00:57:12.179
01:02:51.768 : en:01:02:51.768
01:07:15.949 : en:01:07:15.949
01:13:49.717 : en:01:13:49.717

загрузка...
Правила, инструкции, FAQ!!!
Торрент  Добавлен [11 июл 2014, 10:23] Скачать торрент
Скачать торрент
[ Размер 23.39 КБ / Просмотров 7 ]

Статус
Проверен 
 
Размер  9.1 ГБ
Приватный: Нет (DHT включён)
.torrent скачан  0
Как залить торрент? | Как скачать Torrent? | Как смотреть и слушать онлайн?  


     Отправить личное сообщение
   
Страница 1 из 1
Показать сообщения за:  Поле сортировки  
Начать новую тему Ответить на тему

   Похожие торренты   Автор   Ответы   Просмотры   Последнее сообщение 
В этой теме нет новых непрочитанных сообщений. Скачать торрент Проверен Уличные танцы 3Д / Street Dance (StreetDance) 3D (Макс Джива, Дания Пасквини / Max Jiva, Denmark Pasquini) [2010 г., Великобритания, мелодрама, музыка, BDRemux 1080p] BD3D

в форуме HD-Video в 3D, Размер: 33.88 ГБ, Здоровье: 100%

Anonymous

0
5|1

28
0

11 июл 2014, 10:21

Anonymous Перейти к последнему сообщению

В этой теме нет новых непрочитанных сообщений. Скачать торрент Проверен Бумажный роман в 3Д / Paperman 3D (Джон Карс / John Kahrs) [2012, мультфильм, короткометражка, мелодрама, комедия, BDrip-AVC] Half OverUnder / Вертикальная анаморфная стереопара

в форуме HD-Video в 3D, Размер: 421.12 МБ, Здоровье: 100%

Anonymous

0
27|8

66
1

02 ноя 2014, 09:49

Anonymous Перейти к последнему сообщению

В этой теме нет новых непрочитанных сообщений. Скачать торрент Проверен Меню в 3Д / Feast 3D (Патрик Осборн / Patrick Osborne) [2014, Мультфильм, Короткометражка, Мелодрама, Комедия, Семейный, BDrip-AVC] Half OverUnder / Вертикальная анаморфная стереопара

в форуме 3D Мультфильмы, Размер: 548.14 МБ, Здоровье: 0%

Anonymous

0
0|0

7
0

07 сен 2016, 17:54

Anonymous Перейти к последнему сообщению

В этой теме нет новых непрочитанных сообщений. Скачать торрент Проверен Лава в 3Д / Lava 3D (Джеймс Форд Мерфи / James Ford Murphy) [2014, Мультфильм, Короткометражка, Мелодрама, Музыкальный, BDrip-AVC] Half OverUnder / Вертикальная анаморфная стереопара

в форуме 3D Мультфильмы, Размер: 485.76 МБ, Здоровье: 0%

Anonymous

0
0|0

2
0

07 сен 2016, 17:53

Anonymous Перейти к последнему сообщению

В этой теме нет новых непрочитанных сообщений. Скачать торрент Проверен Жизнь Пи в 3Д / Life of Pi 3D (Энг Ли / Ang Lee) [2012, Драма, Приключения, BDrip-AVC] Half OverUnder / Вертикальная анаморфная стереопара

в форуме HD-Video в 3D, Размер: 16.04 ГБ, Здоровье: 100%

Anonymous

0
3|0

88
2

10 июл 2014, 14:12

Anonymous Перейти к последнему сообщению



Сейчас этот форум просматривают: нет зарегистрированных пользователей и гости: 1


Вы не можете начинать темы
Вы не можете отвечать на сообщения
Вы не можете редактировать свои сообщения
Вы не можете удалять свои сообщения
Вы не можете добавлять вложения

Перейти:  

!ВНИМАНИЕ!
 Ресурс не предоставляет электронные версии произведений, а занимается лишь коллекционированием и каталогизацией ссылок, присылаемых и публикуемых на форуме нашими читателями. Если вы являетесь правообладателем какого-либо представленного материала и не желаете чтобы ссылка на него находилась в нашем каталоге, свяжитесь с нами и мы незамедлительно удалим её. Файлы для обмена на трекере предоставлены пользователями сайта, и администрация не несёт ответственности за их содержание. Просьба не заливать файлы, защищенные авторскими правами, а также файлы нелегального содержания!