На всех торрентах на трекере установлена скидка на скачивание в размере 100 процентов(а).
 Возможность скачивания торрента НЕ зависит от ограничений при низком ратио, низком аплоаде, требуемом ратио или требуемом аплоаде.


Начать новую тему Ответить на тему
Статистика раздачи
Размер: 16.87 ГБ | Добавлен: 23 мар 2014, 00:18 | Скачали: 0
Сидеров: 23  [0 байт/сек]    Личеров: 2  [0 байт/сек]
Пред. тема | След. тема 

Автор
Сообщение

СообщениеДобавлено: 23 мар 2014, 00:18 

Четверо 2 / Si Da Ming Bu 2 / The Four 2 (2013) BDRip

Год выпуска: 2013
Жанр: Боевик, Фэнтези

Описание фильма:
Во второй части 4 констебля из «Небесной полиции»: Бесстрастная, Железнорукий, Жизнекрад и Хладнокровный снова ведут расследование. При раскрытии дела об убийстве в предместье, констебли наталкиваются на новые факты в убийстве семьи Бесстрастной 12 лет назад. Чем дальше «Небесные» продвигаются в расследовании, тем больше открывается тайн, заставляющих их сделать выбор между прошлым и будущим…
Режиссер: Гордон Чан, Джанет Чун
Актеры: Чао Ден, Лю Ифэй, Колин Чоу, Рональд Чэн, Энтони Вонг Чау-Санг, Чэнь Тайшэн, Янь Лю, Кен Ло, Цзян Иянь, Тэнг Шерен

Продолжительность: 01:57:05
Качество видео: BDRip
Перевод: Двуголосый закадровый
Автор перевода: Ольга Гринтиева, Дмитрий Познанский
Релиз группа: "GREEN TEA"


Дата мировой премьеры: 22 ноября 2013
Видеокодек: MPEG-4 AVC/H.264
Битрейт видео: ~19,1 Мбит/сек
Размер кадра: 1920x1080
Аудио 1: AC3 5.1, 448 kbps [Русский]
Аудио 2: AC3 5.1, 640 kbps [Китайский]
Общее
Уникальный идентификатор : 253837651720928202461865123007031068565 (0xBEF75A7B73B37D73B0210E578A6EC795)
Полное имя : F:\my films\THE_FOUR_2_3D.mkv
Формат : Matroska
Версия формата : Version 2
Размер файла : 16,9 Гбайт
Продолжительность : 1 ч. 57 м.
Общий поток : 20,6 Мбит/сек
Название фильма : THE_FOUR_2_3D_Crop_O/U
Дата кодирования : UTC 2014-03-22 15:09:04
Программа кодирования : mkvmerge v5.7.0 ('The Whirlwind') built on Aug 7 2012 14:11:40
Библиотека кодирования : libebml v1.2.3 + libmatroska v1.3.0

Видео
Идентификатор : 1
Формат : AVC
Формат/Информация : Advanced Video Codec
Профиль формата :
Параметр CABAC формата : Да
Параметр ReFrames формата : 4 кадра
Идентификатор кодека : V_MPEG4/ISO/AVC
Продолжительность : 1 ч. 57 м.
Битрейт : 19,1 Мбит/сек
Ширина : 1920 пикселей
Высота : 1080 пикселей
Соотношение сторон : 16:9
Режим частоты кадров : Постоянный
Частота кадров : 23,976 кадра/сек
Цветовое пространство : YUV
Субдискретизация насыщенности : 4:2:0
Битовая глубина : 8 бит
Тип развёртки : Прогрессивная
Бит/(Пиксели*Кадры) : 0.385
Размер потока : 15,6 Гбайт (93%)
Заголовок : rip by I/N
Библиотека кодирования : x264 core 128 r2216M 198a7ea
Настройки программы : cabac=1 / ref=4 / deblock=1:-3:-3 / analyse=0x3:0x133 / me=umh / subme=10 / psy=1 / psy_rd=1.00:0.15 / mixed_ref=1 / me_range=32 / chroma_me=1 / trellis=2 / 8x8dct=1 / cqm=0 / deadzone=21,11 / fast_pskip=1 / chroma_qp_offset=-3 / threads=8 / lookahead_threads=1 / sliced_threads=0 / nr=0 / decimate=1 / interlaced=0 / bluray_compat=0 / constrained_intra=0 / bframes=6 / b_pyramid=2 / b_adapt=2 / b_bias=0 / direct=3 / weightb=1 / open_gop=0 / weightp=2 / keyint=230 / keyint_min=23 / scenecut=40 / intra_refresh=0 / rc_lookahead=60 / rc=crf / mbtree=1 / crf=17.0 / qcomp=0.60 / qpmin=0 / qpmax=69 / qpstep=4 / vbv_maxrate=40000 / vbv_bufsize=30000 / crf_max=30.0 / nal_hrd=none / ip_ratio=1.40 / aq=1:1.00
Default : Да
Forced : Нет

Аудио #1
Идентификатор : 2
Формат : AC-3
Формат/Информация : Audio Coding 3
Расширение режима : CM (complete main)
Параметр Endianness формата : Big
Идентификатор кодека : A_AC3
Продолжительность : 1 ч. 57 м.
Вид битрейта : Постоянный
Битрейт : 448 Кбит/сек
Каналы : 6 каналов
Расположение каналов : Front: L C R, Side: L R, LFE
Частота : 48,0 КГц
Битовая глубина : 16 бит
Метод сжатия : С потерями
Размер потока : 375 Мбайт (2%)
Заголовок : DVO - Green Tea
Язык : Russian
Default : Да
Forced : Нет

Аудио #2
Идентификатор : 3
Формат : AC-3
Формат/Информация : Audio Coding 3
Расширение режима : CM (complete main)
Параметр Endianness формата : Big
Идентификатор кодека : A_AC3
Продолжительность : 1 ч. 57 м.
Вид битрейта : Постоянный
Битрейт : 640 Кбит/сек
Каналы : 6 каналов
Расположение каналов : Front: L C R, Side: L R, LFE
Частота : 48,0 КГц
Битовая глубина : 16 бит
Метод сжатия : С потерями
Размер потока : 536 Мбайт (3%)
Заголовок : Original
Язык : Chinese
Default : Нет
Forced : Нет

Меню
00:00:00.000 : en:(01)00:00:00:000
00:10:17.283 : en:(02)00:10:17:283
00:18:41.078 : en:(03)00:18:41:078
00:28:26.037 : en:(04)00:28:26:037
00:38:27.888 : en:(05)00:38:27:888
00:48:20.063 : en:(06)00:48:20:063
00:59:01.120 : en:(07)00:59:01:120
01:07:58.824 : en:(08)01:07:58:824
01:17:41.073 : en:(09)01:17:41:073
01:27:06.888 : en:(10)01:27:06:888
01:36:38.918 : en:(11)01:36:38:918
01:44:17.251 : en:(12)01:44:17:251
01:57:05.768 : en:(13)01:57:05:768
Проверено на встроенном плейере ТВ Samsung-D6500

Скриншоты:


Справа и слева у видеоряда обрезано по 245р, что дает возможность просмотра на полный экран (без черных полос) на телевизорах с соотношением сторон 16:9 без изменения пропорций. На мой взгляд плюсы данных рипов- это более глубокое восприятие 3D-эффектов (конечно там где они есть) К минусам отнесу- вынужденное обрезание кадра по бокам. Так-что господа- выбор за вами! Всем приятного просмотра!
загрузка...
Правила, инструкции, FAQ!!!
Торрент  Добавлен [23 мар 2014, 00:18] Скачать торрент
Скачать торрент
[ Размер 43.06 КБ / Просмотров 20 ]

Статус  
 
Размер  16.87 ГБ
Приватный: Нет (DHT включён)
.torrent скачан  0
Как залить торрент? | Как скачать Torrent? | Как смотреть и слушать онлайн?  


     Отправить личное сообщение
   
Страница 1 из 1
Показать сообщения за:  Поле сортировки  
Начать новую тему Ответить на тему

   Похожие торренты   Автор   Ответы   Просмотры   Последнее сообщение 
В этой теме нет новых непрочитанных сообщений. Скачать торрент Лучшее в 3Д / Best of 3D (2012 - 2013) BDRip [1080p] 3D [Вертикальная анаморфная стереопара]

в форуме HD-Video в 3D, Размер: 35.86 ГБ, Здоровье: 100%

Anonymous

0
58|4

177
0

09 янв 2014, 22:26

Anonymous Перейти к последнему сообщению

В этой теме нет новых непрочитанных сообщений. Скачать торрент Проверен Тор 2: Царство тьмы / Thor: The Dark World (2013) BDRip [1080p] 3D [Вертикальная анаморфная стереопара]

в форуме HD-Video в 3D, Размер: 7.77 ГБ, Здоровье: 100%

Anonymous

0
37|1

263
1

12 июл 2015, 12:34

Anonymous Перейти к последнему сообщению

В этой теме нет новых непрочитанных сообщений. Скачать торрент Хоббит: Пустошь Смауга / The Hobbit: The Desolation of Smaug (2013) BDRip [1080p] 3D [Вертикальная анаморфная стереопара] [VO]

в форуме HD-Video в 3D, Размер: 14.21 ГБ, Здоровье: 100%

Anonymous

0
28|1

159
0

22 мар 2014, 09:05

Anonymous Перейти к последнему сообщению

В этой теме нет новых непрочитанных сообщений. Скачать торрент Проверен Невероятное путешествие мистера Спивета / The Young and Prodigious T.S. Spivet (2013) BDRip [1080p] 3D [Вертикальная анаморфная стереопара]

в форуме HD-Video в 3D, Размер: 11.65 ГБ, Здоровье: 100%

Anonymous

0
4|1

131
0

09 авг 2014, 21:28

Anonymous Перейти к последнему сообщению

В этой теме нет новых непрочитанных сообщений. Скачать торрент Помпеи / Pompeii (2014) BDRip [1080p] 3D [Вертикальная анаморфная стереопара] [Line]

в форуме HD-Video в 3D, Размер: 10.29 ГБ, Здоровье: 0%

Anonymous

0
0|0

102
4

03 май 2014, 07:57

Anonymous Перейти к последнему сообщению



Сейчас этот форум просматривают: нет зарегистрированных пользователей и гости: 1


Вы не можете начинать темы
Вы не можете отвечать на сообщения
Вы не можете редактировать свои сообщения
Вы не можете удалять свои сообщения
Вы не можете добавлять вложения

Перейти:  

!ВНИМАНИЕ!
 Ресурс не предоставляет электронные версии произведений, а занимается лишь коллекционированием и каталогизацией ссылок, присылаемых и публикуемых на форуме нашими читателями. Если вы являетесь правообладателем какого-либо представленного материала и не желаете чтобы ссылка на него находилась в нашем каталоге, свяжитесь с нами и мы незамедлительно удалим её. Файлы для обмена на трекере предоставлены пользователями сайта, и администрация не несёт ответственности за их содержание. Просьба не заливать файлы, защищенные авторскими правами, а также файлы нелегального содержания!