На всех торрентах на трекере установлена скидка на скачивание в размере 100 процентов(а).
 Возможность скачивания торрента НЕ зависит от ограничений при низком ратио, низком аплоаде, требуемом ратио или требуемом аплоаде.


Начать новую тему Ответить на тему
Статистика раздачи
Размер: 9.04 ГБ | Добавлен: 08 мар 2014, 16:37 | Скачали: 10
Сидеров: 7  [0 байт/сек]    Личеров: 1  [0 байт/сек]
Пред. тема | След. тема 

Автор
Сообщение

СообщениеДобавлено: 08 мар 2014, 16:37 

Проклятье 3D 2
Sadako 3D 2


Год выпуска: 2013
Страна: Япония (Kadokawa Pictures, Tohokushinsha Film Corp.)
Жанр: Ужасы
Продолжительность: 1:35:51

Перевод: Любительский двухголосый закадровый [DeadSno & den904; перевод akira9 (р/г Колобок)]

Режиссер: Цутому Ханабуса / Tsutomu Hanabusa

В ролях: Сатоми Исихара (Akane Ayukawa), Юсуке Ямамото, Миори Такимото (Fûko Andô), Коджи Сето (Takanori Ando), Kokoro Hirasawa (Nagi)

Описание: Молодая аспирантка Фуко воспитывает свою маленькую племянницу, мать которой умерла при родах. Девочка растет крайне замкнутой и постоянно что-то рисует. В городе происходит цепь несчастных случаев. По странному стечению обстоятельств все они как-то связаны с племянницей Фуко, которая либо оказывалась рядом, либо предвидела эти случаи в своих рисунках. Что все это значит? Как связана маленькая девочка с этими трагедиями, и не угрожает ли опасность всем, кто находится рядом с ней?



Премьера: 30 августа 2013 (20 марта 2014)





Качество: BDRip (by Ash61)
Контейнер: MKV
Формат 3D: Half OverUnder / Вертикальная анаморфная стереопара
Порядок ракурсов: левый ракурс первый
Видео кодек: x264
Аудио кодек: AC3



Видео: AVC / 23,976 fps / 1920х1080p / 12.0 Mbps

Аудио:
#1 - Русский / AC3 / 48 KHz / 5.1 ch / 640 Kbps (DVO - DeadSno & den904)
#2 - Японский / AC3 / 48 KHz / 5.1 ch / 640 Kbps (Original - BD 3D)

Субтитры: Внешние (SRT UTF-8) English Full

General
Unique ID : 228802659253492527194518285921202408602 (0xAC21CA0E54B99D4B844267403A830C9A)
Complete name : E:Sadako2(2013)3D-halfOU(Ash61)DVOSadako2(2013)3D-halfOU(Ash61)DVO.mkv
Format : Matroska
Format version : Version 2
File size : 9.04 GiB
Duration : 1h 35mn
Overall bit rate : 13.5 Mbps
Movie name : Проклятье 3D 2 / Sadako 3D 2 (2013) 3D
Encoded date : UTC 2014-03-08 06:32:02
Writing application : mkvmerge v5.8.0 ('No Sleep / Pillow') built on Sep 2 2012 15:37:04
Writing library : libebml v1.2.3 + libmatroska v1.3.0

Video
ID : 1
Format : AVC
Format/Info : Advanced Video Codec
Format profile : High@L4.1
Format settings, CABAC : Yes
Format settings, ReFrames : 4 frames
Codec ID : V_MPEG4/ISO/AVC
Duration : 1h 35mn
Bit rate : 12.0 Mbps
Width : 1 920 pixels
Height : 1 080 pixels
Display aspect ratio : 16:9
Frame rate mode : Constant
Frame rate : 23.976 fps
Color space : YUV
Chroma subsampling : 4:2:0
Bit depth : 8 bits
Scan type : Progressive
Bits/(Pixel*Frame) : 0.241
Stream size : 8.01 GiB (89%)
Title : BDRip by Ash61
Writing library : x264 core 129 r2245 bc13772
Encoding settings : cabac=1 / ref=4 / deblock=1:-3:-3 / analyse=0x3:0x113 / me=umh / subme=10 / psy=1 / psy_rd=1.00:0.15 / mixed_ref=1 / me_range=32 / chroma_me=1 / trellis=2 / 8x8dct=1 / cqm=0 / deadzone=21,11 / fast_pskip=1 / chroma_qp_offset=-3 / threads=12 / lookahead_threads=2 / sliced_threads=0 / nr=0 / decimate=1 / interlaced=0 / bluray_compat=0 / constrained_intra=0 / bframes=10 / b_pyramid=2 / b_adapt=2 / b_bias=0 / direct=3 / weightb=1 / open_gop=0 / weightp=2 / keyint=250 / keyint_min=23 / scenecut=40 / intra_refresh=0 / rc_lookahead=60 / rc=crf / mbtree=1 / crf=17.5 / qcomp=0.70 / qpmin=0 / qpmax=69 / qpstep=4 / vbv_maxrate=40000 / vbv_bufsize=30000 / crf_max=0.0 / nal_hrd=none / frame-packing=4 / ip_ratio=1.40 / aq=1:0.70
Language : Japanese
Default : Yes
Forced : No

Audio #1
ID : 2
Format : AC-3
Format/Info : Audio Coding 3
Mode extension : CM (complete main)
Format settings, Endianness : Big
Codec ID : A_AC3
Duration : 1h 35mn
Bit rate mode : Constant
Bit rate : 640 Kbps
Channel(s) : 6 channels
Channel positions : Front: L C R, Side: L R, LFE
Sampling rate : 48.0 KHz
Bit depth : 16 bits
Compression mode : Lossy
Stream size : 439 MiB (5%)
Title : DVO - DeadSno & den904 (перевод akira9)
Language : Russian
Default : Yes
Forced : No

Audio #2
ID : 3
Format : AC-3
Format/Info : Audio Coding 3
Mode extension : CM (complete main)
Format settings, Endianness : Big
Codec ID : A_AC3
Duration : 1h 35mn
Bit rate mode : Constant
Bit rate : 640 Kbps
Channel(s) : 6 channels
Channel positions : Front: L C R, Side: L R, LFE
Sampling rate : 48.0 KHz
Bit depth : 16 bits
Compression mode : Lossy
Stream size : 439 MiB (5%)
Title : Оригинал - BD 3D
Language : Japanese
Default : No
Forced : No

Menu
00:00:00.000 : :1
00:07:42.837 : :2
00:17:32.385 : :3
00:22:22.633 : :4
00:33:20.957 : :5
00:40:31.512 : :6
00:45:59.215 : :7
00:56:14.413 : :8
01:04:04.382 : :9
01:11:39.587 : :10
01:21:10.657 : :11
01:29:29.239 : :12














загрузка...
Правила, инструкции, FAQ!!!
Торрент  Добавлен [08 мар 2014, 16:37] Скачать торрент
Скачать торрент
[ Размер 45.87 КБ / Просмотров 12 ]

Статус  
 
Размер  9.04 ГБ
Приватный: Нет (DHT включён)
.torrent скачан  10
Как залить торрент? | Как скачать Torrent? | Как смотреть и слушать онлайн?  


     Отправить личное сообщение
   
Страница 1 из 1
Показать сообщения за:  Поле сортировки  
Начать новую тему Ответить на тему

   Похожие торренты   Автор   Ответы   Просмотры   Последнее сообщение 
В этой теме нет новых непрочитанных сообщений. Скачать торрент Беги / Run (2013) BDRip 1080p от Ash61 | 3D-Video | halfOU

в форуме HD-Video в 3D, Размер: 10.08 ГБ, Здоровье: 100%

Anonymous

0
74|4

98
168

20 фев 2014, 20:33

Anonymous Перейти к последнему сообщению

В этой теме нет новых непрочитанных сообщений. Скачать торрент Я, Франкенштейн / I, Frankenstein (2013) BDRip 1080p от Ash61 | 3D-Video | halfOU

в форуме HD-Video в 3D, Размер: 8.29 ГБ, Здоровье: 100%

Anonymous

0
156|13

87
1773

02 мар 2014, 09:04

Anonymous Перейти к последнему сообщению

В этой теме нет новых непрочитанных сообщений. Скачать торрент Проверен Реальная белка / The Nut Job (2013) BDRip 1080p от Ash61 | 3D-Video | halfOU | Лицензия

в форуме HD-Video в 3D, Размер: 5.35 ГБ, Здоровье: 100%

Anonymous

0
40|1

134
112

24 май 2014, 11:47

Anonymous Перейти к последнему сообщению

В этой теме нет новых непрочитанных сообщений. Скачать торрент Гравитация / Gravity (2013) BDRip 1080p от Ash61 | 3D-Video | halfOU | Лицензия

в форуме HD-Video в 3D, Размер: 12.09 ГБ, Здоровье: 100%

Anonymous

0
195|18

137
512

14 фев 2014, 17:51

Anonymous Перейти к последнему сообщению

В этой теме нет новых непрочитанных сообщений. Скачать торрент Конь-огонь / Get a Horse! (2013) BDRip 1080p от Ash61 | 3D-Video | halfOU | Лицензия

в форуме HD-Video в 3D, Размер: 285.81 МБ, Здоровье: 100%

Anonymous

0
20|1

138
53

06 апр 2014, 18:17

Anonymous Перейти к последнему сообщению



Сейчас этот форум просматривают: нет зарегистрированных пользователей и гости: 1


Вы не можете начинать темы
Вы не можете отвечать на сообщения
Вы не можете редактировать свои сообщения
Вы не можете удалять свои сообщения
Вы не можете добавлять вложения

Перейти:  

!ВНИМАНИЕ!
 Ресурс не предоставляет электронные версии произведений, а занимается лишь коллекционированием и каталогизацией ссылок, присылаемых и публикуемых на форуме нашими читателями. Если вы являетесь правообладателем какого-либо представленного материала и не желаете чтобы ссылка на него находилась в нашем каталоге, свяжитесь с нами и мы незамедлительно удалим её. Файлы для обмена на трекере предоставлены пользователями сайта, и администрация не несёт ответственности за их содержание. Просьба не заливать файлы, защищенные авторскими правами, а также файлы нелегального содержания!