На всех торрентах на трекере установлена скидка на скачивание в размере 100 процентов(а).
 Возможность скачивания торрента НЕ зависит от ограничений при низком ратио, низком аплоаде, требуемом ратио или требуемом аплоаде.


Начать новую тему Ответить на тему
Статистика раздачи
Размер: 5.76 ГБ | Добавлен: 23 дек 2013, 08:03 | Скачали: 0
Сидеров: 0  [0 байт/сек]    Личеров: 0  [0 байт/сек]
Пред. тема | След. тема 

Автор
Сообщение

СообщениеДобавлено: 23 дек 2013, 08:03 

Название: Удушье
Оригинальное название: Choke
Год выхода: 2008
Жанр: драма, комедия
Режиссер: Кларк Грегг

В ролях: Сэм Рокуэлл, Кэтрин Александр, Теодорина Белло, Кейт Блумберг, Джона Бобо, Уилли Бурк, Хезер Бёрнс, Дэвид Волос-Фонтено, Мэтт Джералд, Кларк Грегг

О фильме: Экранизация романа Чака Паланика, о пресной жизни мошенника, подрабатывающего где придется и время от времени разыгрывающего приступы удушья в ресторанах, паразитируя на «спасителях», поддерживающих его деньгами. Кроме того главный герой является сексоголиком, а его полоумная мать скрывает правду о его рождении.



Выпущено: ATO Pictures
Продолжительность: 01:31:47
Перевод: Профессиональный (многоголосый закадровый) + Украинский (двухголосый закадровый)


Кодек: x264
Качество: BDRip (источник: Blu-ray Disc)
Видео: 1280x694 (1,85:1), 23.976 fps, 7900 kbps
Аудио #1: AC-3, 6 ch, 448 kbps (Многоголосый закадровый, R5)
Аудио #2: AC-3, 2 ch, 192 kbps (Двухголосый закадровый, АртХаусТрафік)
Аудио #3: AC-3, 6 ch, 448 kbps (Original)
Субтитры: Русские, Английские
Скачать: сэмпл

Скриншоты

Общее
Уникальный идентификатор : 254633505225174763661367382206252728532 (0xBF90A116E78CA257BF051E86DE9240D4)
Полное имя : Choke.2008.BDRip.720p.Rus.Ukr.Eng.mkv
Формат : Matroska
Версия формата : Version 2
Размер файла : 5,76 Гбайт
Продолжительность : 1 ч. 32 м.
Общий поток : 8954 Кбит/сек
Название фильма : Удушье / Choke (2008)
Дата кодирования : UTC 2013-12-22 20:20:21
Программа кодирования : mkvmerge v5.8.0 ('No Sleep / Pillow') built on Sep 2 2012 15:37:04
Библиотека кодирования : libebml v1.2.3 + libmatroska v1.3.0

Видео
Идентификатор : 1
Формат : AVC
Формат/Информация : Advanced Video Codec
Профиль формата : High@L4.1
Параметр CABAC формата : Да
Параметр ReFrames формата : 9 кадров
Идентификатор кодека : V_MPEG4/ISO/AVC
Продолжительность : 1 ч. 32 м.
Битрейт : 7900 Кбит/сек
Ширина : 1280 пикселей
Высота : 694 пикселя
Соотношение сторон : 1,85:1
Режим частоты кадров : Постоянный
Частота кадров : 23,976 кадра/сек
Цветовое пространство : YUV
Субдискретизация насыщенности : 4:2:0
Битовая глубина : 8 бит
Тип развёртки : Прогрессивная
Бит/(Пиксели*Кадры) : 0.371
Размер потока : 4,95 Гбайт (86%)
Заголовок : Release by AlexKa
Библиотека кодирования : x264 core 140 r2377 1ca7bb9
Настройки программы : cabac=1 / ref=9 / deblock=1:-3:-3 / analyse=0x3:0x133 / me=umh / subme=11 / psy=1 / psy_rd=1.00:0.10 / mixed_ref=1 / me_range=32 / chroma_me=1 / trellis=2 / 8x8dct=1 / cqm=0 / deadzone=21,11 / fast_pskip=0 / chroma_qp_offset=-3 / threads=12 / lookahead_threads=2 / sliced_threads=0 / nr=0 / decimate=1 / interlaced=0 / bluray_compat=0 / constrained_intra=0 / bframes=9 / b_pyramid=2 / b_adapt=2 / b_bias=0 / direct=3 / weightb=1 / open_gop=0 / weightp=2 / keyint=240 / keyint_min=23 / scenecut=40 / intra_refresh=0 / rc=2pass / mbtree=0 / bitrate=7900 / ratetol=1.0 / qcomp=0.60 / qpmin=0 / qpmax=69 / qpstep=4 / cplxblur=20.0 / qblur=0.5 / ip_ratio=1.40 / pb_ratio=1.30 / aq=1:1.00
Язык : English

Аудио #1
Идентификатор : 2
Формат : AC-3
Формат/Информация : Audio Coding 3
Расширение режима : CM (complete main)
Параметр Endianness формата : Big
Идентификатор кодека : A_AC3
Продолжительность : 1 ч. 32 м.
Вид битрейта : Постоянный
Битрейт : 448 Кбит/сек
Каналы : 6 каналов
Расположение каналов : Front: L C R, Side: L R, LFE
Частота : 48,0 КГц
Битовая глубина : 16 бит
Метод сжатия : С потерями
Размер потока : 295 Мбайт (5%)
Заголовок : Многоголосый закадровый, R5
Язык : Russian

Аудио #2
Идентификатор : 3
Формат : AC-3
Формат/Информация : Audio Coding 3
Расширение режима : CM (complete main)
Параметр Endianness формата : Big
Идентификатор кодека : A_AC3
Продолжительность : 1 ч. 32 м.
Вид битрейта : Постоянный
Битрейт : 192 Кбит/сек
Каналы : 2 канала
Расположение каналов : Front: L R
Частота : 48,0 КГц
Битовая глубина : 16 бит
Метод сжатия : С потерями
Размер потока : 127 Мбайт (2%)
Заголовок : Двухголосый закадровый, АртХаусТрафік
Язык : Ukrainian

Аудио #3
Идентификатор : 4
Формат : AC-3
Формат/Информация : Audio Coding 3
Расширение режима : CM (complete main)
Параметр Endianness формата : Big
Идентификатор кодека : A_AC3
Продолжительность : 1 ч. 32 м.
Вид битрейта : Постоянный
Битрейт : 448 Кбит/сек
Каналы : 6 каналов
Расположение каналов : Front: L C R, Side: L R, LFE
Частота : 48,0 КГц
Битовая глубина : 16 бит
Метод сжатия : С потерями
Размер потока : 295 Мбайт (5%)
Заголовок : Original
Язык : English

Текст #1
Идентификатор : 5
Формат : UTF-8
Идентификатор кодека : S_TEXT/UTF8
Идентификатор кодека/Информация : UTF-8 Plain Text
Заголовок : Rus
Язык : Russian

Текст #2
Идентификатор : 6
Формат : UTF-8
Идентификатор кодека : S_TEXT/UTF8
Идентификатор кодека/Информация : UTF-8 Plain Text
Заголовок : Eng
Язык : English

Меню
00:00:00.000 : :Chapter 01
00:03:36.506 : :Chapter 02
00:09:04.210 : :Chapter 03
00:15:49.281 : :Chapter 04
00:17:58.118 : :Chapter 05
00:20:48.955 : :Chapter 06
00:23:53.515 : :Chapter 07
00:27:56.590 : :Chapter 08
00:33:08.736 : :Chapter 09
00:35:04.560 : :Chapter 10
00:36:56.422 : :Chapter 11
00:40:55.744 : :Chapter 12
00:43:25.268 : :Chapter 13
00:47:45.571 : :Chapter 14
00:51:32.422 : :Chapter 15
00:57:05.922 : :Chapter 16
00:59:04.457 : :Chapter 17
01:04:40.876 : :Chapter 18
01:09:05.474 : :Chapter 19
01:13:02.669 : :Chapter 20
01:15:08.587 : :Chapter 21
01:18:47.930 : :Chapter 22
01:21:41.104 : :Chapter 23
01:26:35.314 : :Chapter 24
01:31:46.459 : :Chapter 25
загрузка...
Правила, инструкции, FAQ!!!
Торрент  Добавлен [23 дек 2013, 08:03] Скачать торрент
Скачать торрент
[ Размер 14.98 КБ / Просмотров 8 ]

Статус  
 
Размер  5.76 ГБ
Приватный: Нет (DHT включён)
.torrent скачан  0
Как залить торрент? | Как скачать Torrent? | Как смотреть и слушать онлайн?  


     Отправить личное сообщение
   
Страница 1 из 1
Показать сообщения за:  Поле сортировки  
Начать новую тему Ответить на тему

   Похожие торренты   Автор   Ответы   Просмотры   Последнее сообщение 
В этой теме нет новых непрочитанных сообщений. Скачать торрент Удушье / Choke (2008) HDRip

в форуме Драмы, Мелодрамы, Размер: 1.46 ГБ, Здоровье: 0%

Anonymous

0
0|0

21
0

23 дек 2013, 08:07

Anonymous Перейти к последнему сообщению

В этой теме нет новых непрочитанных сообщений. Скачать торрент Удушье / Choke (2008) HDRip | P

в форуме Драмы, Мелодрамы, Размер: 746.58 МБ, Здоровье: 0%

Anonymous

0
0|0

18
0

13 фев 2014, 23:11

Anonymous Перейти к последнему сообщению

В этой теме нет новых непрочитанных сообщений. Скачать торрент 10 000 лет до н.э. / 10,000 BC (2008) BDRip 720p

в форуме 720p | 1080p, Размер: 3.12 ГБ, Здоровье: 0%

Anonymous

0
0|0

115
1

27 янв 2014, 09:25

Anonymous Перейти к последнему сообщению

В этой теме нет новых непрочитанных сообщений. Скачать торрент Проверен Слепота / Blindness (2008) BDRip 720p

в форуме 720p | 1080p, Размер: 8.3 ГБ, Здоровье: 58%

Гость

0
77|131

118
36

24 авг 2015, 19:16

Гость Перейти к последнему сообщению

В этой теме нет новых непрочитанных сообщений. Скачать торрент Проверен На крючке / Eagle Eye (2008) BDRip 720p

в форуме 720p | 1080p, Размер: 5.37 ГБ, Здоровье: 100%

Anonymous

0
21|1

46
310

30 май 2014, 16:54

Anonymous Перейти к последнему сообщению



Сейчас этот форум просматривают: нет зарегистрированных пользователей и гости: 2


Вы не можете начинать темы
Вы не можете отвечать на сообщения
Вы не можете редактировать свои сообщения
Вы не можете удалять свои сообщения
Вы не можете добавлять вложения

Перейти:  

!ВНИМАНИЕ!
 Ресурс не предоставляет электронные версии произведений, а занимается лишь коллекционированием и каталогизацией ссылок, присылаемых и публикуемых на форуме нашими читателями. Если вы являетесь правообладателем какого-либо представленного материала и не желаете чтобы ссылка на него находилась в нашем каталоге, свяжитесь с нами и мы незамедлительно удалим её. Файлы для обмена на трекере предоставлены пользователями сайта, и администрация не несёт ответственности за их содержание. Просьба не заливать файлы, защищенные авторскими правами, а также файлы нелегального содержания!