На всех торрентах на трекере установлена скидка на скачивание в размере 100 процентов(а).
 Возможность скачивания торрента НЕ зависит от ограничений при низком ратио, низком аплоаде, требуемом ратио или требуемом аплоаде.


Начать новую тему Ответить на тему
Статистика раздачи
Размер: 1.4 ГБ | Добавлен: 21 дек 2013, 22:01 | Скачали: 0
Сидеров: 0  [0 байт/сек]    Личеров: 0  [0 байт/сек]
Пред. тема | След. тема 

Автор
Сообщение

СообщениеДобавлено: 21 дек 2013, 22:01 

Metallica: Through the Never (2013)
_________________________________________________________


Название: Metallica: Сквозь невозможное
Оригинальное название: Metallica: Through the Never
Год выхода: 2013
Жанр: мюзикл, музыка, приключения
Режиссер: Нимрод Антал
В ролях: Дэйн ДеХаан, Джеймс Хетфилд, Ларс Ульрих, Кирк Хеммет, Роберт Трухильо, Кайл Томсон,
Тоби Харгрейв, МакКензи Грэй, Питер Брайант, Хротгар Мэтьюз и др.

О фильме:
Участник технической команды группы Metallica получает задание — привезти сумку, содержимое которой необходимо группе для выступления.
Сопровождая таинственную сумку, он попадает в невероятные передряги!
Картина представляет собой смесь игрового фильма и концерта.



Страна: США
Продолжительность: 01:28:11
Перевод: Оригинал
(на немногочисленные диалоги перевод отсутствует)

Качество: MKV, WEBRip
Видео: V_MPEG4/AVC, 720x400 (16:9), ~ 2 077 Кбит/сек, 23.976 fps
Звук: AC3, 2ch, ~ 192 Kbps, 44.1 Hz
Субтритры: вшитые, арабские, неотключаемые

Сэмпл: Скачать


General
Unique ID : 228164477043338922164979707649306972652
(0xABA6E13E651E4F758C10EAC066FCD1EC)
Complete name : Metallica Through the Never 2013.mkv
Format : Matroska
Format version : Version 2
File size : 1.40 GiB
Duration : 1h 28mn
Overall bit rate mode : Variable
Overall bit rate : 2 271 Kbps
Encoded date : UTC 2013-12-16 03:36:14
Writing application : mkvmerge v6.5.0 ('Isn't she lovely') built on Oct 20 2013 12:50:05
Writing library : libebml v1.3.0 + libmatroska v1.4.1

Video
ID : 1
Format : AVC
Format/Info : Advanced Video Codec
Format profile : High@L4.1
Format settings, CABAC : Yes
Format settings, ReFrames : 3 frames
Codec ID : V_MPEG4/ISO/AVC
Duration : 1h 28mn
Bit rate mode : Variable
Bit rate : 2 077 Kbps
Maximum bit rate : 40.0 Mbps
Width : 720 pixels
Height : 400 pixels
Display aspect ratio : 16:9
Frame rate mode : Constant
Frame rate : 23.976 fps
Color space : YUV
Chroma subsampling : 4:2:0
Bit depth : 8 bits
Scan type : Progressive
Bits/(Pixel*Frame) : 0.301
Stream size : 1.25 GiB (90%)
Writing library : x264 core 140 r2377 1ca7bb9
Encoding settings : cabac=1 / ref=4 / deblock=1:-1:-1 / analyse=0x3:0x113 / me=hex / subme=6 / psy=1 / psy_rd=1.00:0.15 / mixed_ref=1 / me_range=16 / chroma_me=1 / trellis=1 / 8x8dct=1 / cqm=0 / deadzone=21,11 / fast_pskip=1 / chroma_qp_offset=-3 / threads=6 / lookahead_threads=1 / sliced_threads=0 / slices=4 / nr=0 / decimate=1 / interlaced=0 / bluray_compat=0 / constrained_intra=0 / bframes=3 / b_pyramid=1 / b_adapt=1 / b_bias=0 / direct=1 / weightb=1 / open_gop=0 / weightp=0 / keyint=23 / keyint_min=1 / scenecut=40 / intra_refresh=0 / rc_lookahead=23 / rc=2pass / mbtree=1 / bitrate=2077 / ratetol=1.0 / qcomp=0.60 / qpmin=10 / qpmax=51 / qpstep=4 / cplxblur=20.0 / qblur=0.5 / vbv_maxrate=40000 / vbv_bufsize=30000 / nal_hrd=vbr / filler=0 / ip_ratio=1.40 / aq=1:1.00
Default : Yes
Forced : No
Color primaries : BT.709
Transfer characteristics : BT.709
Matrix coefficients : BT.709

Audio
ID : 2
Format : AC-3
Format/Info : Audio Coding 3
Mode extension : CM (complete main)
Format settings, Endianness : Big
Codec ID : A_AC3
Duration : 1h 28mn
Bit rate mode : Constant
Bit rate : 192 Kbps
Channel(s) : 2 channels
Channel positions : Front: L R
Sampling rate : 44.1 KHz
Bit depth : 16 bits
Compression mode : Lossy
Stream size : 121 MiB (8%)
Language : English
Default : Yes
Forced : No
загрузка...
Правила, инструкции, FAQ!!!
Торрент  Добавлен [21 дек 2013, 22:01] Скачать торрент
Скачать торрент
[ Размер 14.42 КБ / Просмотров 26 ]

Статус  
 
Размер  1.4 ГБ
Приватный: Нет (DHT включён)
.torrent скачан  0
Как залить торрент? | Как скачать Torrent? | Как смотреть и слушать онлайн?  


     Отправить личное сообщение
   
Страница 1 из 1
Показать сообщения за:  Поле сортировки  
Начать новую тему Ответить на тему

   Похожие торренты   Автор   Ответы   Просмотры   Последнее сообщение 
В этой теме нет новых непрочитанных сообщений. Скачать торрент Metallica: Сквозь невозможное / Metallica: Through the Never (2013) BDRip 1080p | 3D-Video

в форуме Концерты (HD-Video), Размер: 12.53 ГБ, Здоровье: 50%

Anonymous

0
1|2

87
3

13 янв 2014, 21:05

Anonymous Перейти к последнему сообщению

В этой теме нет новых непрочитанных сообщений. Скачать торрент Metallica: Сквозь невозможное / Metallica: Through the Never (2013) BDRip 720p

в форуме Концерты (HD-Video), Размер: 5.76 ГБ, Здоровье: 0%

Anonymous

0
0|0

70
1

13 янв 2014, 11:26

Anonymous Перейти к последнему сообщению

В этой теме нет новых непрочитанных сообщений. Скачать торрент Проверен Metallica: Сквозь невозможное / Metallica Through the Never [2013, Thrash Metal, Blu-ray]

в форуме Концерты (HD-Video), Размер: 44.46 ГБ, Здоровье: 100%

Anonymous

0
16|5

18
0

23 окт 2016, 19:02

Anonymous Перейти к последнему сообщению

В этой теме нет новых непрочитанных сообщений. Скачать торрент Проверен Metallica: Сквозь невозможное / Metallica: Through the Never (Нимрод Антал / Nimrod Antal) [2013, США, Thrash Metal, BDRip 720p]

в форуме Концерты (HD-Video), Размер: 6.92 ГБ, Здоровье: 100%

Anonymous

0
58|12

108
10

03 май 2015, 22:14

Anonymous Перейти к последнему сообщению

В этой теме нет новых непрочитанных сообщений. Скачать торрент Проверен (Metall)[LP][24/96] Metallica - Metallica [Universal 4xLP-Set; 45rpm] - 2008, FLAC (tracks)

в форуме Зарубежный рок (оцифровки), Размер: 1.32 ГБ, Здоровье: 100%

Anonymous

0
3|1

11
0

26 авг 2016, 16:37

Anonymous Перейти к последнему сообщению



Сейчас этот форум просматривают: нет зарегистрированных пользователей и гости: 1


Вы не можете начинать темы
Вы не можете отвечать на сообщения
Вы не можете редактировать свои сообщения
Вы не можете удалять свои сообщения
Вы не можете добавлять вложения

Перейти:  

!ВНИМАНИЕ!
 Ресурс не предоставляет электронные версии произведений, а занимается лишь коллекционированием и каталогизацией ссылок, присылаемых и публикуемых на форуме нашими читателями. Если вы являетесь правообладателем какого-либо представленного материала и не желаете чтобы ссылка на него находилась в нашем каталоге, свяжитесь с нами и мы незамедлительно удалим её. Файлы для обмена на трекере предоставлены пользователями сайта, и администрация не несёт ответственности за их содержание. Просьба не заливать файлы, защищенные авторскими правами, а также файлы нелегального содержания!