На всех торрентах на трекере установлена скидка на скачивание в размере 100 процентов(а).
 Возможность скачивания торрента НЕ зависит от ограничений при низком ратио, низком аплоаде, требуемом ратио или требуемом аплоаде.


Начать новую тему Ответить на тему
Статистика раздачи
Размер: 6.8 ГБ | Добавлен: 21 дек 2013, 09:05 | Скачали: 0
Сидеров: 0  [0 байт/сек]    Личеров: 0  [0 байт/сек]
Пред. тема | След. тема 

Автор
Сообщение

СообщениеДобавлено: 21 дек 2013, 09:05 

Название: Va-банк
Оригинальное название: Runner Runner
Год выхода: 2013
Жанр: Триллер, драма, криминал
Режиссер: Брэд Фурман

В ролях: Джастин Тимберлэйк, Бен Аффлек, Джемма Артертон, Энтони Маки, Майкл Эспер, Оливер Купер, Кристиан Джордж, Юл Васкез, Джон Хёрд, Джеймс Молина

О фильме:
Чтобы оплачивать учёбу в колледже, Ричи погружается в мир азартных игр онлайн. Когда удача изменяет ему, он отправляется на Коста-Рику, чтобы помериться силами с настоящим асом игрового бизнеса. Тот видит в Ричи родственную душу и вводит его в свою игру. Но когда степень опасности возрастает, а ставки достигают невероятных высот, Ричи вдруг отчётливо понимает, что его новый босс вот-вот совершит непоправимое, и пытается поменяться с ним ролями.



Страна: США
Студия: Appian Way, Double Feature Films, New Regency Pictures, Stone Village Productions
Продолжительность: 01:31:39
Перевод: Дублированный [Чистый звук]


Кодек: AVC
Качество: BDRip 1080p
Видео: 1920x800, 23.976 fps, 8745 Kbps
Аудио 1: AC3, 48 kHz, 6 ch, 384 Kbps [Russian]
Аудио 2: DTS, 48 kHz, 6 ch, 1510 Kbps [English]
Субтитры: English
Дополнительно: Сохранены оригинальные чаптеры как на Blu-Ray.

General
Unique ID : 252720613295877685154152990170493142882 (0xBE20383C5C8CEF1088E98C5267A6C762)
Complete name : G:Vabank.2013.D.BDRip.1080p_.mkv
Format : Matroska
Format version : Version 4 / Version 2
File size : 6.80 GiB
Duration : 1h 31mn
Overall bit rate : 10.6 Mbps
Encoded date : UTC 2013-12-20 13:10:49
Writing application : mkvmerge v6.5.0 ('Isn't she lovely') built on Oct 20 2013 12:50:05
Writing library : libebml v1.3.0 + libmatroska v1.4.1

Video
ID : 1
Format : AVC
Format/Info : Advanced Video Codec
Format profile : High@L4.0
Format settings, CABAC : Yes
Format settings, ReFrames : 5 frames
Codec ID : V_MPEG4/ISO/AVC
Duration : 1h 31mn
Bit rate : 8 745 Kbps
Width : 1 920 pixels
Height : 800 pixels
Display aspect ratio : 2.40:1
Frame rate : 23.976 fps
Color space : YUV
Chroma subsampling : 4:2:0
Bit depth : 8 bits
Scan type : Progressive
Bits/(Pixel*Frame) : 0.237
Stream size : 5.45 GiB (80%)
Writing library : x264 core 140 r2377 1ca7bb9
Encoding settings : cabac=1 / ref=5 / deblock=1:0:0 / analyse=0x3:0x133 / me=umh / subme=7 / psy=1 / psy_rd=1.00:0.00 / mixed_ref=1 / me_range=16 / chroma_me=1 / trellis=1 / 8x8dct=1 / cqm=0 / deadzone=21,11 / fast_pskip=0 / chroma_qp_offset=-2 / threads=18 / lookahead_threads=3 / sliced_threads=0 / nr=0 / decimate=1 / interlaced=0 / bluray_compat=0 / constrained_intra=0 / bframes=3 / b_pyramid=2 / b_adapt=2 / b_bias=0 / direct=3 / weightb=1 / open_gop=0 / weightp=2 / keyint=250 / keyint_min=23 / scenecut=40 / intra_refresh=0 / rc_lookahead=50 / rc=2pass / mbtree=1 / bitrate=8745 / ratetol=1.0 / qcomp=0.60 / qpmin=0 / qpmax=69 / qpstep=4 / cplxblur=20.0 / qblur=0.5 / ip_ratio=1.40 / aq=1:1.00
Language : English
Default : Yes
Forced : No

Audio #1
ID : 2
Format : AC-3
Format/Info : Audio Coding 3
Mode extension : CM (complete main)
Codec ID : A_AC3
Duration : 1h 31mn
Bit rate mode : Constant
Bit rate : 384 Kbps
Channel(s) : 6 channels
Channel positions : Front: L C R, Side: L R, LFE
Sampling rate : 48.0 KHz
Bit depth : 16 bits
Compression mode : Lossy
Stream size : 251 MiB (4%)
Default : Yes
Forced : No

Audio #2
ID : 3
Format : DTS
Format/Info : Digital Theater Systems
Codec ID : A_DTS
Duration : 1h 31mn
Bit rate mode : Constant
Bit rate : 1 510 Kbps
Channel(s) : 6 channels
Channel positions : Front: L C R, Side: L R, LFE
Sampling rate : 48.0 KHz
Bit depth : 24 bits
Compression mode : Lossy
Stream size : 988 MiB (14%)
Language : English
Default : No
Forced : No

Text
ID : 4
Format : UTF-8
Codec ID : S_TEXT/UTF8
Codec ID/Info : UTF-8 Plain Text
Language : English
Default : Yes
Forced : Yes

Menu
00:00:00.000 : en:00:00:00.000
00:03:08.814 : en:00:03:08.814
00:05:47.973 : en:00:05:47.973
00:08:43.857 : en:00:08:43.857
00:11:16.384 : en:00:11:16.384
00:13:34.647 : en:00:13:34.647
00:15:13.913 : en:00:15:13.913
00:16:55.765 : en:00:16:55.765
00:19:46.602 : en:00:19:46.602
00:24:24.505 : en:00:24:24.505
00:27:07.334 : en:00:27:07.334
00:31:01.943 : en:00:31:01.943
00:32:59.811 : en:00:32:59.811
00:36:30.605 : en:00:36:30.605
00:38:40.026 : en:00:38:40.026
00:43:36.906 : en:00:43:36.906
00:46:38.087 : en:00:46:38.087
00:48:37.706 : en:00:48:37.706
00:53:03.555 : en:00:53:03.555
00:54:38.609 : en:00:54:38.609
00:57:18.644 : en:00:57:18.644
01:00:38.885 : en:01:00:38.885
01:03:17.669 : en:01:03:17.669
01:08:48.833 : en:01:08:48.833
01:13:04.797 : en:01:13:04.797
01:16:45.935 : en:01:16:45.935
01:21:22.961 : en:01:21:22.961
01:25:32.502 : en:01:25:32.502

загрузка...
Правила, инструкции, FAQ!!!
Торрент  Добавлен [21 дек 2013, 09:05] Скачать торрент
Скачать торрент
[ Размер 17.52 КБ / Просмотров 9 ]

Статус  
 
Размер  6.8 ГБ
Приватный: Нет (DHT включён)
.torrent скачан  0
Как залить торрент? | Как скачать Torrent? | Как смотреть и слушать онлайн?  


     Отправить личное сообщение
   
Страница 1 из 1
Показать сообщения за:  Поле сортировки  
Начать новую тему Ответить на тему

   Похожие торренты   Автор   Ответы   Просмотры   Последнее сообщение 
В этой теме нет новых непрочитанных сообщений. Скачать торрент Va-банк / Runner Runner (2013) BDRip 720p | Чистый звук

в форуме 720p | 1080p, Размер: 4.61 ГБ, Здоровье: 0%

Anonymous

0
0|0

33
0

20 дек 2013, 21:51

Anonymous Перейти к последнему сообщению

В этой теме нет новых непрочитанных сообщений. Скачать торрент Va-банк / Runner Runner (2013) HDRip | Чистый звук

в форуме Триллеры, Размер: 1.37 ГБ, Здоровье: 0%

Anonymous

0
0|0

32
0

20 дек 2013, 21:55

Anonymous Перейти к последнему сообщению

В этой теме нет новых непрочитанных сообщений. Скачать торрент Проверен Бегущий в лабиринте / The Maze Runner (2014) BDRip 1080p | Чистый звук

в форуме 720p | 1080p, Размер: 7.56 ГБ, Здоровье: 100%

Гость

0
1|0

78
1

01 дек 2014, 12:41

Гость Перейти к последнему сообщению

В этой теме нет новых непрочитанных сообщений. Скачать торрент Проверен Бегущий в лабиринте / The Maze Runner (2014) BDRip 720p | Чистый звук

в форуме 720p | 1080p, Размер: 5.07 ГБ, Здоровье: 100%

Гость

0
67|0

37
1

01 дек 2014, 12:44

Гость Перейти к последнему сообщению

В этой теме нет новых непрочитанных сообщений. Скачать торрент Проверен (Melodic Hard Rock) [LP] [16/44.1] Runner - 1979 - Runner, FLAC (image+.cue)

в форуме Зарубежный рок (оцифровки), Размер: 234.14 МБ, Здоровье: 0%

Anonymous

0
0|0

1
0

25 авг 2016, 18:42

Anonymous Перейти к последнему сообщению



Сейчас этот форум просматривают: нет зарегистрированных пользователей и гости: 1


Вы не можете начинать темы
Вы не можете отвечать на сообщения
Вы не можете редактировать свои сообщения
Вы не можете удалять свои сообщения
Вы не можете добавлять вложения

Перейти:  

!ВНИМАНИЕ!
 Ресурс не предоставляет электронные версии произведений, а занимается лишь коллекционированием и каталогизацией ссылок, присылаемых и публикуемых на форуме нашими читателями. Если вы являетесь правообладателем какого-либо представленного материала и не желаете чтобы ссылка на него находилась в нашем каталоге, свяжитесь с нами и мы незамедлительно удалим её. Файлы для обмена на трекере предоставлены пользователями сайта, и администрация не несёт ответственности за их содержание. Просьба не заливать файлы, защищенные авторскими правами, а также файлы нелегального содержания!