На всех торрентах на трекере установлена скидка на скачивание в размере 100 процентов(а).
 Возможность скачивания торрента НЕ зависит от ограничений при низком ратио, низком аплоаде, требуемом ратио или требуемом аплоаде.


Начать новую тему Ответить на тему
Статистика раздачи
Размер: 8.96 ГБ | Добавлен: 19 дек 2013, 09:04 | Скачали: 0
Сидеров: 0  [0 байт/сек]    Личеров: 0  [0 байт/сек]
Пред. тема | След. тема 

Автор
Сообщение

СообщениеДобавлено: 19 дек 2013, 09:04 

Название: Два ствола
Оригинальное название: 2 Guns
Год выпуска: 2013
Жанр: Боевик, триллер, драма, криминал
Выпущено: США, Boom Entertainment, Emmett/Furla Films, Envision Entertainment Corporation, Foresight Unlimited, Herrick Entertainment, Hollywood Studios International, Marc Platt Productions, Red Hill Entertainment
Режиссер: Бальтасар Кормакур

В ролях: Марк Уолберг, Дензел Вашингтон, Джеймс Мэрсден, Пола Пэттон, Билл Пэкстон, Эви Томпсон, Эдвард Джеймс Олмос, Фред Уорд, Мэтт Кук, Роберт Джон Бёрк

О фильме: Это история двух грабителей, которые на самом деле не те, кем кажутся. Один из них — агент из управления по борьбе с наркотиками, а другой — тайный агент разведки ВМС. Сами того не желая, они занимаются расследованием дел друг друга, а также воруют деньги у мафии. Через некоторое время героям придется украсть 50 миллионов долларов у ЦРУ.




Качество: BDRip (720p)
Видео: MPEG-4 AVC, 4209 Кбит/с, 1280x534
Аудио: Русский, украинский (AC3, 6 ch, 640 Кбит/с), русский (AC3, 6 ch, 448 Кбит/с), русский, английский (DTS, 6 ch, 1510 Кбит/с)

Продолжительность: 01:49:09
Перевод: Дублированный [лицензия], профессиональный многоголосый, авторский одноголосый [Сербин, Володарский]
Субтитры: Русские, английские

Общее
Уникальный идентификатор : 216017411434592319741898929641613698026 (0xA28370ABA5097AD3A64C88575C4823EA)
Полное имя : D:2.Guns.2013.BluRay.720p.DTS.x264-CHD.mkv
Формат : Matroska
Версия формата : Version 2
Размер файла : 8,96 Гбайт
Продолжительность : 1 ч. 49 м.
Общий поток : 11,7 Мбит/сек
Дата кодирования : UTC 2013-12-19 05:02:35
Программа кодирования : mkvmerge v6.3.0 ('You can't stop me!') built on Jun 28 2013 20:09:41
Библиотека кодирования : libebml v1.3.0 + libmatroska v1.4.0
Видео
Идентификатор : 1
Формат : AVC
Формат/Информация : Advanced Video Codec
Профиль формата : High@L4.1
Параметр CABAC формата : Да
Параметр ReFrames формата : 10 кадров
Идентификатор кодека : V_MPEG4/ISO/AVC
Продолжительность : 1 ч. 49 м.
Битрейт : 3971 Кбит/сек
Номинальный битрейт : 4209 Кбит/сек
Ширина : 1280 пикселей
Высота : 534 пикселя
Соотношение сторон : 2,40:1
Режим частоты кадров : Постоянный
Частота кадров : 23,976 кадра/сек
Цветовое пространство : YUV
Субдискретизация насыщенности : 4:2:0
Битовая глубина : 8 бит
Тип развёртки : Прогрессивная
Бит/(Пиксели*Кадры) : 0.242
Размер потока : 3,03 Гбайт (34%)
Заголовок : 2.Guns.2013.BluRay.720p.DTS.x264-CHD
Библиотека кодирования : x264 core 135 r2345 f0c1c53
Настройки программы : cabac=1 / ref=10 / deblock=1:-3:-3 / analyse=0x3:0x113 / me=umh / subme=10 / psy=1 / psy_rd=1.00:0.05 / mixed_ref=1 / me_range=32 / chroma_me=1 / trellis=2 / 8x8dct=1 / cqm=0 / deadzone=21,11 / fast_pskip=0 / chroma_qp_offset=-2 / threads=8 / lookahead_threads=1 / sliced_threads=0 / nr=0 / decimate=1 / interlaced=0 / bluray_compat=0 / constrained_intra=0 / bframes=5 / b_pyramid=2 / b_adapt=2 / b_bias=0 / direct=3 / weightb=1 / open_gop=0 / weightp=2 / keyint=250 / keyint_min=23 / scenecut=40 / intra_refresh=0 / rc=2pass / mbtree=0 / bitrate=4209 / ratetol=1.0 / qcomp=0.70 / qpmin=0 / qpmax=69 / qpstep=4 / cplxblur=20.0 / qblur=0.5 / ip_ratio=1.40 / pb_ratio=1.30 / aq=2:0.90
Язык : English
Default : Нет
Forced : Нет
Аудио #1
Идентификатор : 2
Формат : AC-3
Формат/Информация : Audio Coding 3
Расширение режима : CM (complete main)
Параметр Endianness формата : Big
Идентификатор кодека : A_AC3
Продолжительность : 1 ч. 49 м.
Вид битрейта : Постоянный
Битрейт : 640 Кбит/сек
Каналы : 6 каналов
Расположение каналов : Front: L C R, Side: L R, LFE
Частота : 48,0 КГц
Битовая глубина : 16 бит
Метод сжатия : С потерями
Размер потока : 500 Мбайт (5%)
Язык : Russian
Default : Да
Forced : Нет
Аудио #2
Идентификатор : 3
Формат : AC-3
Формат/Информация : Audio Coding 3
Расширение режима : CM (complete main)
Параметр Endianness формата : Big
Идентификатор кодека : A_AC3
Продолжительность : 1 ч. 49 м.
Вид битрейта : Постоянный
Битрейт : 640 Кбит/сек
Каналы : 6 каналов
Расположение каналов : Front: L C R, Side: L R, LFE
Частота : 48,0 КГц
Битовая глубина : 16 бит
Метод сжатия : С потерями
Размер потока : 500 Мбайт (5%)
Язык : Ukrainian
Default : Нет
Forced : Нет
Аудио #3
Идентификатор : 4
Формат : AC-3
Формат/Информация : Audio Coding 3
Расширение режима : CM (complete main)
Параметр Endianness формата : Big
Идентификатор кодека : A_AC3
Продолжительность : 1 ч. 49 м.
Вид битрейта : Постоянный
Битрейт : 448 Кбит/сек
Каналы : 6 каналов
Расположение каналов : Front: L C R, Side: L R, LFE
Частота : 48,0 КГц
Битовая глубина : 16 бит
Метод сжатия : С потерями
Размер потока : 350 Мбайт (4%)
Язык : Russian
Default : Нет
Forced : Нет
Аудио #4
Идентификатор : 5
Формат : AC-3
Формат/Информация : Audio Coding 3
Расширение режима : CM (complete main)
Параметр Endianness формата : Big
Идентификатор кодека : A_AC3
Продолжительность : 1 ч. 49 м.
Вид битрейта : Постоянный
Битрейт : 640 Кбит/сек
Каналы : 6 каналов
Расположение каналов : Front: L C R, Side: L R, LFE
Частота : 48,0 КГц
Битовая глубина : 16 бит
Метод сжатия : С потерями
Размер потока : 500 Мбайт (5%)
Заголовок : Serbin
Язык : Russian
Default : Нет
Forced : Нет
Аудио #5
Идентификатор : 6
Формат : AC-3
Формат/Информация : Audio Coding 3
Расширение режима : CM (complete main)
Параметр Endianness формата : Big
Идентификатор кодека : A_AC3
Продолжительность : 1 ч. 49 м.
Вид битрейта : Постоянный
Битрейт : 640 Кбит/сек
Каналы : 6 каналов
Расположение каналов : Front: L C R, Side: L R, LFE
Частота : 48,0 КГц
Битовая глубина : 16 бит
Метод сжатия : С потерями
Размер потока : 500 Мбайт (5%)
Заголовок : Volodarskiy
Язык : Russian
Default : Нет
Forced : Нет
Аудио #6
Идентификатор : 7
Формат : DTS
Формат/Информация : Digital Theater Systems
Режим : 16
Параметр Endianness формата : Big
Идентификатор кодека : A_DTS
Продолжительность : 1 ч. 49 м.
Вид битрейта : Постоянный
Битрейт : 1509 Кбит/сек
Каналы : 6 каналов
Расположение каналов : Front: L C R, Side: L R, LFE
Частота : 48,0 КГц
Битовая глубина : 24 бит
Метод сжатия : С потерями
Размер потока : 1,15 Гбайт (13%)
Заголовок : Serbin
Язык : Russian
Default : Нет
Forced : Нет
Аудио #7
Идентификатор : 8
Формат : DTS
Формат/Информация : Digital Theater Systems
Режим : 16
Параметр Endianness формата : Big
Идентификатор кодека : A_DTS
Продолжительность : 1 ч. 49 м.
Вид битрейта : Постоянный
Битрейт : 1509 Кбит/сек
Каналы : 6 каналов
Расположение каналов : Front: L C R, Side: L R, LFE
Частота : 48,0 КГц
Битовая глубина : 24 бит
Метод сжатия : С потерями
Размер потока : 1,15 Гбайт (13%)
Заголовок : Volodarskiy
Язык : Russian
Default : Нет
Forced : Нет
Аудио #8
Идентификатор : 9
Формат : DTS
Формат/Информация : Digital Theater Systems
Режим : 16
Параметр Endianness формата : Big
Идентификатор кодека : A_DTS
Продолжительность : 1 ч. 49 м.
Вид битрейта : Постоянный
Битрейт : 1509 Кбит/сек
Каналы : 6 каналов
Расположение каналов : Front: L C R, Side: L R, LFE
Частота : 48,0 КГц
Битовая глубина : 24 бит
Метод сжатия : С потерями
Размер потока : 1,15 Гбайт (13%)
Заголовок : dts 5.1 1536kbps
Язык : English
Default : Нет
Forced : Нет
Текст #1
Идентификатор : 10
Формат : UTF-8
Идентификатор кодека : S_TEXT/UTF8
Идентификатор кодека/Информация : UTF-8 Plain Text
Язык : Russian
Default : Да
Forced : Нет
Текст #2
Идентификатор : 11
Формат : UTF-8
Идентификатор кодека : S_TEXT/UTF8
Идентификатор кодека/Информация : UTF-8 Plain Text
Язык : Russian
Default : Нет
Forced : Нет
Текст #3
Идентификатор : 12
Формат : UTF-8
Идентификатор кодека : S_TEXT/UTF8
Идентификатор кодека/Информация : UTF-8 Plain Text
Язык : English
Default : Нет
Forced : Нет
Текст #4
Идентификатор : 13
Формат : UTF-8
Идентификатор кодека : S_TEXT/UTF8
Идентификатор кодека/Информация : UTF-8 Plain Text
Заголовок : SDH
Язык : English
Default : Нет
Forced : Нет
Меню
00:00:00.000 : en:00:00:00.000
00:05:36.044 : en:00:05:36.044
00:10:44.185 : en:00:10:44.185
00:15:15.206 : en:00:15:15.206
00:20:42.283 : en:00:20:42.283
00:24:47.736 : en:00:24:47.736
00:29:20.842 : en:00:29:20.842
00:36:24.099 : en:00:36:24.099
00:40:56.371 : en:00:40:56.371
00:45:39.278 : en:00:45:39.278
00:52:17.051 : en:00:52:17.051
00:58:13.782 : en:00:58:13.782
01:05:49.988 : en:01:05:49.988
01:10:28.683 : en:01:10:28.683
01:14:35.388 : en:01:14:35.388
01:20:14.560 : en:01:20:14.560
01:24:46.915 : en:01:24:46.915
01:31:11.925 : en:01:31:11.925
01:38:23.648 : en:01:38:23.648
01:41:02.640 : en:01:41:02.640

Озвучивание: Дублированное [лицензия с BD CEE]
За многоголоску спасибо arkahan
о Сербин
СОВМЕСТНЫЙ ПРОЕКТ E180 - HDclub -DVD100
Спасибо пользователям форума e180., fen, пуля, Vladimir, ZeDOK, oleg-k, Jiraya87, Loki1982, denis_mgn_1987, DMX-92, luka69, Nadoelo, SavineX78, Iceman, olegsoleg, xerman13, vik19662007, Ramis, Foots, Эдуард. muha, tide, ANISKIN50, Andrey_Tula, Letyoha3, markinscor, Skazhutin, Guyver, Ken, carnivale, Tio. dark1982, Slimka, ARTYq, MyxAmoP, Марлон, Roman Lee, _shurik_, Rayan, HPotter, urassiks

За перевод Л.Володарскoго

Спасибо пользователям форума e180.

Jiraya87, Nadoelo, SavineX78, jorn2, Vladimir, Ochkarik1, karantin66, Hattori Hanzo, Iceman, luka69, olegsoleg, xerman13, фёдор александрович, furria62, Эдуард, muha, bla_, nimph, Andrey_Tula, audiolubitel, ZeDOK + +, Guyver, Loki1982, Savely, Lee Ray, denis_mgn_1987, _shurik_, kinobbk, Tio, Диммон, Slimka, MyxAmoP, Марлон, Nick, foxlight, User



загрузка...
Правила, инструкции, FAQ!!!
Торрент  Добавлен [19 дек 2013, 09:04] Скачать торрент
Скачать торрент
[ Размер 45.3 КБ / Просмотров 10 ]

Статус  
 
Размер  8.96 ГБ
Приватный: Нет (DHT включён)
.torrent скачан  0
Как залить торрент? | Как скачать Torrent? | Как смотреть и слушать онлайн?  


     Отправить личное сообщение
   
Страница 1 из 1
Показать сообщения за:  Поле сортировки  
Начать новую тему Ответить на тему

   Похожие торренты   Автор   Ответы   Просмотры   Последнее сообщение 
В этой теме нет новых непрочитанных сообщений. Скачать торрент Два ствола / 2 Guns (2013) BDRip 1080p | Лицензия | D, P, A

в форуме 720p | 1080p, Размер: 14.08 ГБ, Здоровье: 0%

Anonymous

0
0|0

33
0

19 дек 2013, 09:00

Anonymous Перейти к последнему сообщению

В этой теме нет новых непрочитанных сообщений. Скачать торрент Два ствола / 2 Guns (2013) HDRip | Лицензия

в форуме Боевики, Размер: 1.37 ГБ, Здоровье: 0%

Anonymous

0
0|0

81
0

19 дек 2013, 09:10

Anonymous Перейти к последнему сообщению

В этой теме нет новых непрочитанных сообщений. Скачать торрент [VIDEO] Два ствола / 2 Guns (Бальтасар Кормакур / Baltasar Kormakur) [2013г, США, боевик, триллер, драма, комедия, криминал, BDRip][MP4, 640x]

в форуме Видео для смартфонов и КПК, Размер: 946.31 МБ, Здоровье: 100%

Anonymous

0
5|1

68
0

30 янв 2014, 06:47

Anonymous Перейти к последнему сообщению

В этой теме нет новых непрочитанных сообщений. Скачать торрент Проверен Джо / Joe (2013) BDRip 720p | P | лицензия

в форуме 720p | 1080p, Размер: 5.83 ГБ, Здоровье: 100%

Anonymous

0
36|0

46
296

05 июн 2014, 12:38

Anonymous Перейти к последнему сообщению

В этой теме нет новых непрочитанных сообщений. Скачать торрент Проверен Джо / Joe (2013) BDRip 720p | P | Лицензия

в форуме 720p | 1080p, Размер: 2.23 ГБ, Здоровье: 100%

Anonymous

0
122|2

42
1533

30 июл 2014, 21:50

Anonymous Перейти к последнему сообщению



Сейчас этот форум просматривают: нет зарегистрированных пользователей и гости: 1


Вы не можете начинать темы
Вы не можете отвечать на сообщения
Вы не можете редактировать свои сообщения
Вы не можете удалять свои сообщения
Вы не можете добавлять вложения

Перейти:  

!ВНИМАНИЕ!
 Ресурс не предоставляет электронные версии произведений, а занимается лишь коллекционированием и каталогизацией ссылок, присылаемых и публикуемых на форуме нашими читателями. Если вы являетесь правообладателем какого-либо представленного материала и не желаете чтобы ссылка на него находилась в нашем каталоге, свяжитесь с нами и мы незамедлительно удалим её. Файлы для обмена на трекере предоставлены пользователями сайта, и администрация не несёт ответственности за их содержание. Просьба не заливать файлы, защищенные авторскими правами, а также файлы нелегального содержания!